<?xml version="1.0" standalone="no"?>
<!DOCTYPE svg PUBLIC "-//W3C//DTD SVG 1.1//EN" "http://www.w3.org/Graphics/SVG/1.1/DTD/svg11.dtd" >
<svg xmlns="http://www.w3.org/2000/svg" xmlns:xlink="http://www.w3.org/1999/xlink" version="1.1">
<metadata>
Created by FontForge 20150824 at Thu Nov 10 22:48:08 2016
 By Everything Fonts
Copyright (c) 2012 Christian Schwartz for Commercial Type.
</metadata>
<defs>
<font id="GraphikLCGRegular" horiz-adv-x="612" >
  <font-face 
    font-family="GraphikLCGRegular"
    font-weight="400"
    font-stretch="normal"
    units-per-em="1000"
    panose-1="2 11 5 3 3 2 2 6 2 3"
    ascent="818"
    descent="-182"
    x-height="523"
    cap-height="715"
    bbox="-224 -220 1098 1113"
    underline-thickness="50"
    underline-position="-150"
    unicode-range="U+000D-FB02"
  />
<missing-glyph horiz-adv-x="500" 
 />
    <glyph glyph-name="f_f" unicode="ff" horiz-adv-x="646" 
d="M108 453h-75v70h75v78q0 81 39.5 124.5t116.5 43.5q32 0 62 -10v-70q-24 11 -59 11q-76 0 -76 -90v-87h205v85q0 81 39.5 124.5t116.5 43.5q32 0 62 -10v-70q-24 11 -59 11q-76 0 -76 -90v-94h128v-70h-128v-453h-83v453h-205v-453h-83v453z" />
    <glyph glyph-name=".notdef" horiz-adv-x="500" 
 />
    <glyph glyph-name=".null" horiz-adv-x="0" 
 />
    <glyph glyph-name="nonmarkingreturn" horiz-adv-x="333" 
 />
    <glyph glyph-name="NULL" horiz-adv-x="0" 
 />
    <glyph glyph-name="NULL" horiz-adv-x="0" 
 />
    <glyph glyph-name="CR" unicode="&#xd;" horiz-adv-x="265" 
 />
    <glyph glyph-name="space" unicode=" " horiz-adv-x="265" 
 />
    <glyph glyph-name="exclam" unicode="!" horiz-adv-x="298" 
d="M149 -5q-26 0 -45 18.5t-19 45.5t19 45.5t45 18.5t45 -18.5t19 -45.5t-19 -45.5t-45 -18.5zM104 715h92l-14 -513h-64z" />
    <glyph glyph-name="quotedbl" unicode="&#x22;" horiz-adv-x="387" 
d="M67 715h90l-15 -245h-60zM230 715h90l-15 -245h-60z" />
    <glyph glyph-name="numbersign" unicode="#" horiz-adv-x="515" 
d="M284 282h-97l-26 -183h-68l26 183h-83v70h94l19 132h-85v70h95l24 161h68l-24 -161h97l24 161h68l-24 -161h87v-70h-97l-19 -132h88v-70h-99l-26 -183h-68zM198 352h97l19 132h-97z" />
    <glyph glyph-name="dollar" unicode="$" horiz-adv-x="639" 
d="M291 -8q-220 14 -240 226h84q5 -34 12 -56.5t23.5 -46.5t46.5 -37.5t74 -17.5v278q-105 19 -158 63t-53 129q0 78 59 132.5t152 60.5v90h59v-91q91 -8 144.5 -58t63.5 -137h-78q-11 58 -42.5 88.5t-87.5 38.5v-250q117 -21 170 -65t53 -137q0 -86 -62.5 -145t-160.5 -65
v-127h-59v127zM490 196q0 56 -30 85t-110 47v-268q61 6 100.5 43.5t39.5 92.5zM159 538q0 -52 26.5 -79.5t105.5 -44.5v241q-62 -5 -97 -37t-35 -80z" />
    <glyph glyph-name="percent" unicode="%" horiz-adv-x="796" 
d="M204 448q42 0 65 27t23 77q0 48 -23.5 76t-64.5 28q-40 0 -64 -27.5t-24 -77.5t23.5 -76.5t64.5 -26.5zM204 383q-66 0 -115 48t-49 119q0 73 48.5 122t115.5 49t115.5 -49t48.5 -120q0 -72 -49 -120.5t-115 -48.5zM578 715h76l-437 -715h-76zM592 57q42 0 65 27t23 77
q0 48 -23.5 76t-64.5 28q-40 0 -64 -27.5t-24 -77.5t23.5 -76.5t64.5 -26.5zM592 -8q-66 0 -115 48t-49 119q0 73 48.5 122t115.5 49t115.5 -49t48.5 -120q0 -72 -49 -120.5t-115 -48.5z" />
    <glyph glyph-name="ampersand" unicode="&#x26;" horiz-adv-x="698" 
d="M533 146l120 -146h-101l-71 86q-80 -93 -198 -93q-99 0 -162.5 54t-63.5 142q0 78 43 127.5t121 87.5q-63 81 -63 151q0 77 51 120.5t124 43.5q66 0 111 -42t45 -105q0 -119 -153 -185l150 -183l87 165h77zM286 61q88 0 152 78l-178 217q-59 -30 -89 -65.5t-30 -93.5
q0 -65 38 -100.5t107 -35.5zM238 554q0 -43 62 -121q61 27 86 58.5t25 82.5q0 35 -22.5 57.5t-58.5 22.5q-41 0 -66.5 -24.5t-25.5 -75.5z" />
    <glyph glyph-name="quotesingle" unicode="'" horiz-adv-x="224" 
d="M67 715h90l-15 -245h-60z" />
    <glyph glyph-name="parenleft" unicode="(" horiz-adv-x="334" 
d="M225 -148q-166 189 -166 460q0 266 166 461h83q-162 -199 -162 -461q0 -258 162 -460h-83z" />
    <glyph glyph-name="parenright" unicode=")" horiz-adv-x="334" 
d="M26 -148q162 199 162 461q0 258 -162 460h83q166 -201 166 -460q0 -266 -166 -461h-83z" />
    <glyph glyph-name="asterisk" unicode="*" horiz-adv-x="434" 
d="M88 450l83 111l-123 29l22 67l118 -48l-7 134h73l-7 -134l117 48l22 -67l-124 -29l83 -111l-56 -41l-74 120l-70 -120z" />
    <glyph glyph-name="plus" unicode="+" horiz-adv-x="531" 
d="M229 307h-187v70h187v202h73v-202h187v-70h-187v-202h-73v202z" />
    <glyph glyph-name="comma" unicode="," horiz-adv-x="294" 
d="M42 -95l96 219l81 -38l-123 -209z" />
    <glyph glyph-name="hyphen" unicode="-" horiz-adv-x="346" 
d="M66 314h214v-78h-214v78z" />
    <glyph glyph-name="period" unicode="." horiz-adv-x="294" 
d="M147 -5q-26 0 -45 18.5t-19 45.5t19 45.5t45 18.5t45 -18.5t19 -45.5t-19 -45.5t-45 -18.5z" />
    <glyph glyph-name="slash" unicode="/" horiz-adv-x="415" 
d="M303 776h76l-291 -924h-76z" />
    <glyph glyph-name="zero" unicode="0" horiz-adv-x="693" 
d="M350 63q189 0 189 277v40q0 125 -51 199.5t-140 74.5q-91 0 -142 -72t-51 -204v-40q0 -133 52 -204t143 -71zM350 -9q-128 0 -206 95t-78 251v40q0 159 75.5 253t206.5 94q130 0 204.5 -95t74.5 -250v-40q0 -158 -73.5 -253t-203.5 -95z" />
    <glyph glyph-name="one" unicode="1" horiz-adv-x="411" 
d="M199 629l-160 -115v81l166 120h81v-715h-87v629z" />
    <glyph glyph-name="two" unicode="2" horiz-adv-x="566" 
d="M25 20l284 299q103 109 103 207q0 60 -33.5 94t-94.5 34q-130 0 -151 -159h-81q8 106 69.5 167.5t162.5 61.5q99 0 157.5 -54.5t58.5 -146.5q0 -118 -144 -260l-197 -192h345v-71h-479v20z" />
    <glyph glyph-name="three" unicode="3" horiz-adv-x="616" 
d="M296 -9q-111 0 -178.5 62t-71.5 158h80q6 -68 49 -109t123 -41q82 0 122.5 36.5t40.5 101.5q0 139 -151 139h-54v73h50q134 0 134 122q0 53 -33 86.5t-97 33.5q-66 0 -108.5 -37t-49.5 -98h-76q4 86 69 146t165 60q98 0 156.5 -55.5t58.5 -133.5q0 -109 -113 -156
q138 -38 138 -180q0 -97 -70.5 -152.5t-183.5 -55.5z" />
    <glyph glyph-name="four" unicode="4" horiz-adv-x="629" 
d="M403 150h-358v28l327 537h116v-494h99v-71h-99v-150h-85v150zM403 221v428l-248 -428h248z" />
    <glyph glyph-name="five" unicode="5" horiz-adv-x="599" 
d="M287 -9q-111 0 -170 54.5t-68 147.5h83q12 -65 45 -98.5t109 -33.5q73 0 115 46t42 127q0 76 -40.5 121.5t-109.5 45.5q-60 0 -99 -17t-70 -52h-32v383h402v-75h-330v-218q53 49 146 49q98 0 160 -64.5t62 -172.5q0 -111 -70 -177t-175 -66z" />
    <glyph glyph-name="six" unicode="6" horiz-adv-x="631" 
d="M323 -9q-257 0 -257 325v17q0 188 76.5 289.5t203.5 101.5q86 0 140.5 -44t68.5 -129h-83q-12 52 -43 77t-89 25q-83 0 -134 -74t-54 -212q58 97 184 97q105 0 169.5 -66.5t64.5 -167.5q0 -108 -67 -173.5t-180 -65.5zM323 59q70 0 114 46t44 121q0 78 -43 124t-116 46
q-72 0 -118 -44t-46 -114q0 -85 45.5 -132t119.5 -47z" />
    <glyph glyph-name="seven" unicode="7" horiz-adv-x="537" 
d="M401 645h-363v70h471v-12l-268 -703h-89z" />
    <glyph glyph-name="eight" unicode="8" horiz-adv-x="619" 
d="M310 -9q-61 0 -116 22.5t-93 72.5t-38 117q0 69 37 116t98 69q-108 43 -108 150q0 82 66.5 134t153.5 52t153 -51.5t66 -132.5q0 -103 -110 -151q137 -51 137 -184q0 -101 -73.5 -157.5t-172.5 -56.5zM310 62q69 0 113 38.5t44 107.5q0 67 -44.5 104.5t-110.5 37.5
q-68 0 -114 -37.5t-46 -106.5q0 -67 46 -105.5t112 -38.5zM313 419q58 0 93 32t35 88q0 51 -37 84t-94 33q-58 0 -95 -32t-37 -87q0 -54 39 -86t96 -32z" />
    <glyph glyph-name="nine" unicode="9" horiz-adv-x="632" 
d="M296 -8q-98 0 -157 48t-73 136h84q13 -56 47.5 -84.5t100.5 -28.5q87 0 134 71t49 213q-27 -45 -75 -70t-110 -25q-104 0 -169.5 66t-65.5 168q0 108 67 173.5t180 65.5q127 0 192 -82t65 -238v-45q0 -179 -69.5 -273.5t-199.5 -94.5zM309 320q72 0 118 43t46 112
q0 86 -45.5 134t-119.5 48q-70 0 -114 -46t-44 -121q0 -78 43 -124t116 -46z" />
    <glyph glyph-name="colon" unicode=":" horiz-adv-x="304" 
d="M152 -5q-26 0 -45 18.5t-19 45.5t19 45.5t45 18.5t45 -18.5t19 -45.5t-19 -45.5t-45 -18.5zM152 292q-26 0 -45 18.5t-19 45.5t19 45.5t45 18.5t45 -18.5t19 -45.5t-19 -45.5t-45 -18.5z" />
    <glyph glyph-name="semicolon" unicode=";" horiz-adv-x="304" 
d="M27 -95l96 219l81 -38l-123 -209zM161 292q-26 0 -45 18.5t-19 45.5t19 45.5t45 18.5t45 -18.5t19 -45.5t-19 -45.5t-45 -18.5z" />
    <glyph glyph-name="less" unicode="&#x3c;" horiz-adv-x="516" 
d="M59 312v20l384 217v-80l-263 -147l263 -147v-80z" />
    <glyph glyph-name="equal" unicode="=" horiz-adv-x="496" 
d="M46 268h404v-72h-404v72zM46 448h404v-72h-404v72z" />
    <glyph glyph-name="greater" unicode="&#x3e;" horiz-adv-x="516" 
d="M73 175l263 147l-263 147v80l384 -217v-20l-384 -217v80z" />
    <glyph glyph-name="question" unicode="?" horiz-adv-x="501" 
d="M185 252q0 37 17 72.5t35 56t51 51.5q24 24 37 39.5t24.5 38t11.5 45.5q0 100 -107 100q-57 0 -92.5 -35t-40.5 -95h-78q6 89 63.5 144t148.5 55q95 0 142.5 -48t47.5 -118q0 -35 -16.5 -67.5t-33 -51t-48.5 -48.5q-29 -27 -44.5 -44.5t-29.5 -45t-14 -56.5v-43h-74v50z
M220 -5q-26 0 -45 18.5t-19 45.5t19 45.5t45 18.5t45 -18.5t19 -45.5t-19 -45.5t-45 -18.5z" />
    <glyph glyph-name="at" unicode="@" horiz-adv-x="927" 
d="M465 -147q-129 0 -225 58t-142.5 149t-46.5 200q0 120 58 218.5t156 154t213 55.5q177 0 287.5 -104.5t110.5 -261.5q0 -67 -18 -118.5t-46.5 -80t-60 -42.5t-63.5 -14q-57 0 -82.5 22t-32.5 64q-23 -41 -63 -67t-86 -26q-73 0 -117 47t-44 127q0 99 57.5 165.5
t139.5 66.5q49 0 79.5 -19.5t41.5 -48.5l7 60h83l-30 -252q-10 -79 48 -79q47 0 81 49t34 144q0 136 -87 219t-239 83t-251 -101t-99 -259q0 -69 21.5 -130.5t62.5 -109t106.5 -75.5t146.5 -28q143 0 236 81h77q-39 -67 -122.5 -107t-190.5 -40zM442 124q50 0 89 44t39 119
q0 56 -27 84.5t-77 28.5q-49 0 -83.5 -44.5t-34.5 -120.5q0 -52 26 -81.5t68 -29.5z" />
    <glyph glyph-name="A" unicode="A" horiz-adv-x="686" 
d="M288 715h114l242 -715h-86l-70 206h-295l-69 -206h-82zM217 275h248l-124 368z" />
    <glyph glyph-name="B" unicode="B" horiz-adv-x="634" 
d="M96 715h215q230 0 230 -185v-4q0 -114 -108 -151q77 -18 110 -59t33 -112v-4q0 -99 -62.5 -149.5t-172.5 -50.5h-245v715zM339 68q152 0 152 133v4q0 67 -39 98.5t-125 31.5h-146v-267h158zM311 403q78 0 111.5 29.5t33.5 96.5v4q0 60 -35.5 87t-111.5 27h-128v-244h130z
" />
    <glyph glyph-name="C" unicode="C" horiz-adv-x="742" 
d="M395 -9q-155 0 -244.5 98t-89.5 264v8q0 159 95 262t241 103q117 0 197.5 -61t92.5 -173h-86q-15 83 -63.5 124t-139.5 41q-111 0 -179 -80.5t-68 -214.5v-8q0 -137 65.5 -214.5t180.5 -77.5q89 0 145.5 44.5t70.5 130.5h81q-18 -121 -97 -183.5t-202 -62.5z" />
    <glyph glyph-name="D" unicode="D" horiz-adv-x="708" 
d="M281 71q135 0 205.5 75.5t70.5 209.5v8q0 131 -67.5 206t-209.5 75h-97v-574h98zM96 715h189q177 0 269.5 -97t92.5 -254v-9q0 -157 -92 -256t-272 -99h-187v715z" />
    <glyph glyph-name="E" unicode="E" horiz-adv-x="578" 
d="M96 715h417v-71h-330v-243h266v-71h-266v-259h348v-71h-435v715z" />
    <glyph glyph-name="F" unicode="F" horiz-adv-x="558" 
d="M96 715h418v-71h-331v-253h258v-71h-258v-320h-87v715z" />
    <glyph glyph-name="G" unicode="G" horiz-adv-x="779" 
d="M407 -9q-161 0 -253.5 100.5t-92.5 261.5v8q0 158 96.5 261.5t249.5 103.5q114 0 195 -56.5t96 -170.5h-87q-28 158 -202 158q-122 0 -190 -80.5t-68 -214.5v-8q0 -136 66 -214.5t190 -78.5q111 0 167 63t58 165h-209v72h294v-53q0 -152 -84.5 -234.5t-225.5 -82.5z" />
    <glyph glyph-name="H" unicode="H" horiz-adv-x="742" 
d="M96 715h87v-324h376v324h87v-715h-87v318h-376v-318h-87v715z" />
    <glyph glyph-name="I" unicode="I" horiz-adv-x="289" 
d="M101 715h87v-715h-87v715z" />
    <glyph glyph-name="J" unicode="J" horiz-adv-x="432" 
d="M144 -9q-67 0 -100 19v72q49 -20 95 -20q116 0 116 136v517h87v-521q0 -102 -55 -152.5t-143 -50.5z" />
    <glyph glyph-name="K" unicode="K" horiz-adv-x="628" 
d="M96 715h87v-344l311 345h97l-318 -348l334 -368h-105l-319 349v-349h-87v715z" />
    <glyph glyph-name="L" unicode="L" horiz-adv-x="547" 
d="M96 715h87v-644h327v-71h-414v715z" />
    <glyph glyph-name="M" unicode="M" horiz-adv-x="868" 
d="M96 715h121l221 -557l214 557h120v-715h-87v602l-237 -602h-27l-245 602v-602h-80v715z" />
    <glyph glyph-name="N" unicode="N" horiz-adv-x="736" 
d="M96 715h113l348 -591v591h83v-715h-100l-361 613v-613h-83v715z" />
    <glyph glyph-name="O" unicode="O" horiz-adv-x="823" 
d="M415 63q118 0 187.5 81t69.5 212v8q0 124 -70 207t-189 83q-122 0 -192 -80.5t-70 -211.5v-8q0 -128 75.5 -209.5t188.5 -81.5zM415 -9q-156 0 -255 104.5t-99 257.5v8q0 155 98.5 259t253.5 104t252 -103.5t97 -257.5v-8q0 -154 -97 -259t-250 -105z" />
    <glyph glyph-name="P" unicode="P" horiz-adv-x="593" 
d="M96 715h203q110 0 180 -51.5t70 -157.5v-4q0 -108 -69.5 -159.5t-180.5 -51.5h-116v-291h-87v715zM305 360q77 0 117 36.5t40 105.5v4q0 139 -157 139h-122v-285h122z" />
    <glyph glyph-name="Q" unicode="Q" horiz-adv-x="823" 
d="M565 23q-69 -32 -150 -32q-156 0 -255 104.5t-99 257.5v8q0 155 98.5 259t253.5 104t252 -103.5t97 -257.5v-8q0 -90 -35 -166t-99 -127l90 -100l-53 -51zM415 63q55 0 98 18l-80 90l53 51l91 -103q95 81 95 237v8q0 124 -70 207t-189 83q-122 0 -192 -80.5t-70 -211.5
v-8q0 -128 75.5 -209.5t188.5 -81.5z" />
    <glyph glyph-name="R" unicode="R" horiz-adv-x="640" 
d="M96 715h215q111 0 180.5 -49t69.5 -150v-4q0 -83 -49 -131.5t-128 -63.5l219 -317h-97l-213 311h-110v-311h-87v715zM317 380q157 0 157 132v4q0 70 -40 99.5t-117 29.5h-134v-265h134z" />
    <glyph glyph-name="S" unicode="S" horiz-adv-x="639" 
d="M327 -9q-133 0 -197.5 62.5t-75.5 164.5h84q5 -35 14.5 -61t30 -49t56.5 -35t88 -12q70 0 116.5 37.5t46.5 97.5q0 62 -36.5 92t-136.5 45q-121 19 -180 62.5t-59 134.5q0 83 65 138.5t165 55.5q108 0 171.5 -50.5t74.5 -146.5h-78q-13 68 -52.5 97.5t-115.5 29.5
q-72 0 -110.5 -31.5t-38.5 -84.5q0 -56 34 -84.5t138 -43.5q126 -19 184.5 -65.5t58.5 -142.5q0 -90 -70.5 -150.5t-176.5 -60.5z" />
    <glyph glyph-name="T" unicode="T" horiz-adv-x="573" 
d="M243 644h-208v71h503v-71h-208v-644h-87v644z" />
    <glyph glyph-name="U" unicode="U" horiz-adv-x="708" 
d="M347 -9q-124 0 -190.5 69.5t-66.5 200.5v454h87v-444q0 -111 40.5 -159.5t131.5 -48.5q92 0 137 48t45 173v431h87v-443q0 -134 -68 -207.5t-203 -73.5z" />
    <glyph glyph-name="V" unicode="V" horiz-adv-x="666" 
d="M36 715h86l213 -631l213 631h82l-247 -715h-104z" />
    <glyph glyph-name="W" unicode="W" horiz-adv-x="940" 
d="M40 715h89l145 -577l168 577h62l168 -579l147 579h81l-186 -715h-80l-162 565l-167 -565h-79z" />
    <glyph glyph-name="X" unicode="X" horiz-adv-x="669" 
d="M287 367l-220 348h96l178 -281l177 281h89l-222 -348l233 -367h-98l-191 301l-191 -301h-87z" />
    <glyph glyph-name="Y" unicode="Y" horiz-adv-x="610" 
d="M268 312l-239 403h98l187 -332l180 332h87l-226 -404v-311h-87v312z" />
    <glyph glyph-name="Z" unicode="Z" horiz-adv-x="607" 
d="M34 14l405 630h-369v71h489v-13l-394 -628h388v-74h-519v14z" />
    <glyph glyph-name="bracketleft" unicode="[" horiz-adv-x="368" 
d="M94 776h224v-66h-141v-792h141v-66h-224v924z" />
    <glyph glyph-name="backslash" unicode="\" horiz-adv-x="415" 
d="M36 776h76l291 -924h-76z" />
    <glyph glyph-name="bracketright" unicode="]" horiz-adv-x="368" 
d="M50 -82h141v792h-141v66h224v-924h-224v66z" />
    <glyph glyph-name="asciicircum" unicode="^" horiz-adv-x="519" 
d="M217 715h85l167 -307h-84l-127 236l-126 -236h-82z" />
    <glyph glyph-name="underscore" unicode="_" horiz-adv-x="406" 
d="M5 -92h396v-66h-396v66z" />
    <glyph glyph-name="grave" unicode="`" horiz-adv-x="412" 
d="M79 760h104l62 -147h-62z" />
    <glyph glyph-name="a" unicode="a" horiz-adv-x="552" 
d="M221 -9q-77 0 -125.5 38.5t-48.5 115.5q0 43 21.5 75.5t59.5 51t83 27t98 8.5h75v38q0 63 -26 90.5t-86 27.5q-108 0 -120 -94h-83q8 84 65.5 123.5t141.5 39.5q191 0 191 -187v-345h-83v66q-60 -75 -163 -75zM229 57q68 0 111.5 33.5t43.5 92.5v65h-72q-182 0 -182 -103
q0 -88 99 -88z" />
    <glyph glyph-name="b" unicode="b" horiz-adv-x="639" 
d="M350 -9q-60 0 -106 26.5t-71 68.5v-86h-83v773h83v-338q23 40 72 68.5t105 28.5q105 0 171.5 -71t66.5 -192v-8q0 -121 -65.5 -195.5t-172.5 -74.5zM342 60q78 0 119 50.5t41 146.5v8q0 95 -45.5 146.5t-115.5 51.5q-76 0 -123.5 -50.5t-47.5 -147.5v-8q0 -97 46.5 -147
t125.5 -50z" />
    <glyph glyph-name="c" unicode="c" horiz-adv-x="582" 
d="M307 -9q-112 0 -184 72.5t-72 192.5v8q0 118 73.5 193t180.5 75q90 0 153 -44.5t74 -138.5h-82q-18 114 -145 114q-73 0 -120.5 -54.5t-47.5 -144.5v-8q0 -94 46.5 -145t124.5 -51q59 0 101.5 33.5t48.5 94.5h77q-8 -86 -71.5 -141.5t-156.5 -55.5z" />
    <glyph glyph-name="d" unicode="d" horiz-adv-x="639" 
d="M287 -9q-105 0 -170.5 69.5t-65.5 190.5v8q0 120 68 196.5t176 76.5q114 0 171 -93v334h83v-773h-83v90q-23 -40 -74 -69.5t-105 -29.5zM296 60q77 0 125 50.5t48 147.5v8q0 99 -43.5 148t-122.5 49q-78 0 -122 -52t-44 -148v-8q0 -95 44.5 -145t114.5 -50z" />
    <glyph glyph-name="e" unicode="e" horiz-adv-x="580" 
d="M304 -9q-112 0 -182.5 73t-70.5 192v8q0 118 68.5 193t176.5 75q100 0 167.5 -64.5t67.5 -195.5v-27h-394q6 -185 168 -185q123 0 139 91h83q-14 -78 -73 -119t-150 -41zM446 312q-11 151 -150 151q-63 0 -104 -40t-52 -111h306z" />
    <glyph glyph-name="f" unicode="f" horiz-adv-x="358" 
d="M108 453h-75v70h75v85q0 81 39.5 124.5t116.5 43.5q32 0 62 -10v-70q-24 11 -59 11q-76 0 -76 -90v-94h128v-70h-128v-453h-83v453z" />
    <glyph glyph-name="g" unicode="g" horiz-adv-x="639" 
d="M299 -191q-110 0 -168 44.5t-69 116.5h85q18 -91 151 -91q80 0 124 39.5t44 121.5v76q-23 -40 -73 -69.5t-104 -29.5q-103 0 -170.5 70t-67.5 178v7q0 109 69 184.5t175 75.5q114 0 171 -93v84h83v-488q0 -110 -68.5 -168t-181.5 -58zM298 86q75 0 123 49.5t48 135.5v7
q0 87 -44 136t-122 49q-77 0 -121.5 -52t-44.5 -135v-8q0 -83 46.5 -132.5t114.5 -49.5z" />
    <glyph glyph-name="h" unicode="h" horiz-adv-x="610" 
d="M90 773h83v-333q20 40 63 66t105 26q86 0 135 -51t49 -160v-321h-83v327q0 69 -30 101t-93 32q-61 0 -103.5 -38t-42.5 -105v-317h-83v773z" />
    <glyph glyph-name="i" unicode="i" horiz-adv-x="267" 
d="M92 523h83v-523h-83v523zM132 632q-23 0 -39 16t-16 39t16 39t39 16t39 -16t16 -39t-16 -39t-39 -16z" />
    <glyph glyph-name="j" unicode="j" horiz-adv-x="267" 
d="M15 -121q43 4 60 23.5t17 57.5v563h83v-556q0 -77 -37.5 -116t-122.5 -42v70zM132 632q-23 0 -39 16t-16 39t16 39t39 16t39 -16t16 -39t-16 -39t-39 -16z" />
    <glyph glyph-name="k" unicode="k" horiz-adv-x="528" 
d="M90 773h83v-491l217 241h97l-224 -243l243 -280h-101l-232 271v-271h-83v773z" />
    <glyph glyph-name="l" unicode="l" horiz-adv-x="268" 
d="M92 773h84v-773h-84v773z" />
    <glyph glyph-name="m" unicode="m" horiz-adv-x="922" 
d="M90 523h83v-80q19 39 60 64t96 25q116 0 153 -98q25 47 76 72.5t103 25.5q77 0 126.5 -50.5t49.5 -157.5v-324h-83v330q0 130 -111 130q-56 0 -97 -37t-41 -103v-320h-83v330q0 130 -111 130q-56 0 -97 -37t-41 -103v-320h-83v523z" />
    <glyph glyph-name="n" unicode="n" horiz-adv-x="610" 
d="M90 523h83v-83q20 40 63 66t105 26q86 0 135 -51t49 -160v-321h-83v327q0 69 -30 101t-93 32q-61 0 -103.5 -38t-42.5 -105v-317h-83v523z" />
    <glyph glyph-name="o" unicode="o" horiz-adv-x="616" 
d="M308 60q78 0 124.5 54t46.5 143v7q0 91 -46.5 145t-124.5 54q-79 0 -125 -54t-46 -144v-8q0 -91 45.5 -144t125.5 -53zM307 -9q-111 0 -183.5 75.5t-72.5 190.5v8q0 117 72.5 192t184.5 75t184.5 -74.5t72.5 -191.5v-8q0 -118 -73 -192.5t-185 -74.5z" />
    <glyph glyph-name="p" unicode="p" horiz-adv-x="639" 
d="M90 523h83v-88q23 40 72 68.5t105 28.5q105 0 171.5 -71t66.5 -192v-8q0 -121 -65.5 -195.5t-172.5 -74.5q-120 0 -177 95v-268h-83v705zM342 60q78 0 119 50.5t41 146.5v8q0 95 -45.5 146.5t-115.5 51.5q-76 0 -123.5 -50.5t-47.5 -147.5v-8q0 -97 46.5 -147t125.5 -50z
" />
    <glyph glyph-name="q" unicode="q" horiz-adv-x="639" 
d="M466 90q-23 -40 -74 -69.5t-105 -29.5q-105 0 -170.5 69.5t-65.5 190.5v8q0 120 68 196.5t176 76.5q114 0 171 -93v84h83v-705h-83v272zM296 60q77 0 125 50.5t48 147.5v8q0 99 -43.5 148t-122.5 49q-78 0 -122 -52t-44 -148v-8q0 -95 44.5 -145t114.5 -50z" />
    <glyph glyph-name="r" unicode="r" horiz-adv-x="388" 
d="M90 523h83v-94q26 48 66 74.5t106 28.5v-78q-86 -4 -129 -40t-43 -127v-287h-83v523z" />
    <glyph glyph-name="s" unicode="s" horiz-adv-x="492" 
d="M252 -9q-94 0 -147.5 44.5t-57.5 125.5h81q6 -50 34.5 -75.5t88.5 -25.5q59 0 86.5 20.5t27.5 62.5q0 39 -28.5 57.5t-93.5 30.5q-102 18 -142 52t-40 102t54.5 107.5t122.5 39.5q77 0 128.5 -36t60.5 -115h-80q-9 43 -34.5 62.5t-75.5 19.5q-45 0 -72 -20.5t-27 -54.5
q0 -35 25.5 -53t96.5 -30q39 -8 61.5 -14t49 -17.5t40.5 -27t23.5 -39.5t9.5 -57q0 -74 -49 -116.5t-143 -42.5z" />
    <glyph glyph-name="t" unicode="t" horiz-adv-x="367" 
d="M249 -7q-70 0 -105.5 37t-35.5 101v322h-75v70h75v119h83v-119h122v-70h-122v-314q0 -76 65 -76q34 0 64 11v-70q-27 -11 -71 -11z" />
    <glyph glyph-name="u" unicode="u" horiz-adv-x="606" 
d="M267 -9q-83 0 -132.5 49t-49.5 152v331h83v-327q0 -69 29.5 -101t91.5 -32q60 0 102 38t42 105v317h83v-523h-83v83q-19 -40 -62.5 -66t-103.5 -26z" />
    <glyph glyph-name="v" unicode="v" horiz-adv-x="546" 
d="M31 523h90l155 -439l153 439h86l-188 -523h-106z" />
    <glyph glyph-name="w" unicode="w" horiz-adv-x="806" 
d="M34 523h90l122 -421l127 421h72l119 -421l123 421h85l-163 -523h-92l-109 392l-122 -392h-91z" />
    <glyph glyph-name="x" unicode="x" horiz-adv-x="540" 
d="M221 269l-175 254h97l128 -190l127 190h90l-173 -248l191 -275h-98l-141 211l-144 -211h-89z" />
    <glyph glyph-name="y" unicode="y" horiz-adv-x="541" 
d="M236 54l-205 469h89l160 -375l145 375h85l-289 -705h-84z" />
    <glyph glyph-name="z" unicode="z" horiz-adv-x="495" 
d="M27 12l309 441h-279v70h407v-15l-302 -435h298v-73h-433v12z" />
    <glyph glyph-name="braceleft" unicode="{" horiz-adv-x="393" 
d="M343 -148q-116 0 -167 49t-31 159l19 104q9 50 -19 85t-99 35v62q71 0 99 35t19 85l-19 104q-20 110 31 159t167 49v-63q-76 0 -104 -32t-15 -115l19 -115q9 -55 -18 -90t-80 -48q53 -13 80 -48t18 -90l-19 -115q-13 -83 15 -115t104 -32v-63z" />
    <glyph glyph-name="bar" unicode="|" horiz-adv-x="265" 
d="M99 776h67v-924h-67v924z" />
    <glyph glyph-name="braceright" unicode="}" horiz-adv-x="393" 
d="M50 -85q76 0 104 32t15 115l-19 115q-9 55 18 90t80 48q-53 13 -80 48t-18 90l19 115q13 83 -15 115t-104 32v63q115 0 166.5 -49t31.5 -159l-19 -104q-9 -50 19 -85t99 -35v-62q-71 0 -99 -35t-19 -85l19 -104q20 -110 -31.5 -159t-166.5 -49v63z" />
    <glyph glyph-name="asciitilde" unicode="~" horiz-adv-x="457" 
d="M50 223q6 62 35.5 95t70.5 33q37 0 82.5 -25.5t57.5 -25.5q17 0 30 13.5t15 39.5h66q-4 -62 -34 -95t-69 -33q-40 0 -85.5 25.5t-56.5 25.5q-38 0 -46 -53h-66z" />
    <glyph glyph-name="uni00A0" unicode="&#xa0;" horiz-adv-x="280" 
 />
    <glyph glyph-name="exclamdown" unicode="&#xa1;" horiz-adv-x="300" 
d="M150 603q27 0 45.5 -18t18.5 -45t-19 -45.5t-45 -18.5t-45 18.5t-19 45.5t18.5 45t45.5 18zM195 -116h-92l14 513h64z" />
    <glyph glyph-name="cent" unicode="&#xa2;" horiz-adv-x="577" 
d="M273 -7q-99 10 -160.5 81t-61.5 182v8q0 109 63 181.5t159 84.5v99h59v-99q80 -6 134.5 -50.5t65.5 -130.5h-82q-15 98 -118 112v-399q50 6 85 39t41 87h77q-8 -79 -63.5 -133t-139.5 -62v-128h-59v128zM137 256q0 -84 35.5 -133t100.5 -61v398q-61 -11 -98.5 -63.5
t-37.5 -132.5v-8z" />
    <glyph glyph-name="sterling" unicode="&#xa3;" horiz-adv-x="608" 
d="M54 377h65q-18 70 -18 141q0 91 63 148.5t157 57.5q95 0 151 -50.5t63 -138.5h-84q-10 59 -40 88.5t-90 29.5q-58 0 -95 -37t-37 -99q0 -59 17 -140h213v-62h-199q15 -75 15 -132q0 -35 -13 -65q28 -7 88 -30.5t84 -23.5q86 0 91 86h73q-5 -72 -45 -115.5t-109 -43.5
q-48 0 -123 31.5t-99 31.5q-31 0 -46.5 -15.5t-18.5 -38.5h-73q3 39 29.5 76t73.5 46q12 29 12 62q0 45 -23 131h-82v62z" />
    <glyph glyph-name="yen" unicode="&#xa5;" horiz-adv-x="588" 
d="M90 339h156l-212 376h94l175 -324l167 324h84l-200 -376h157v-58h-168v-78h168v-58h-168v-145h-85v145h-168v58h168v78h-168v58z" />
    <glyph glyph-name="brokenbar" unicode="&#xa6;" horiz-adv-x="272" 
d="M99 297h67v-445h-67v445zM99 776h67v-409h-67v409z" />
    <glyph glyph-name="section" unicode="&#xa7;" horiz-adv-x="551" 
d="M272 -137q-85 0 -135.5 43t-52.5 120h85q4 -46 27 -69.5t74 -23.5t76.5 25t25.5 65q0 41 -28 63t-113 44q-90 22 -136.5 61t-46.5 108q0 50 29.5 85t83.5 50q-61 43 -61 127q0 69 53.5 116t124.5 47q83 0 132 -41t51 -116h-84q-3 43 -25 65t-72 22q-51 0 -75.5 -25
t-24.5 -66q0 -40 27 -63t107 -42q97 -26 143 -61.5t46 -110.5q0 -44 -29 -80.5t-81 -53.5q59 -42 59 -127q0 -68 -52.5 -115t-127.5 -47zM332 185q89 22 89 94q0 41 -29.5 62.5t-95.5 38.5l-79 21q-40 -8 -63.5 -33.5t-23.5 -61.5q0 -38 30 -60t97 -40z" />
    <glyph glyph-name="dieresis" unicode="&#xa8;" horiz-adv-x="412" 
d="M112 634q-22 0 -37.5 15.5t-15.5 37.5t15.5 37.5t37.5 15.5t37.5 -15.5t15.5 -37.5t-15.5 -37.5t-37.5 -15.5zM300 634q-22 0 -37.5 15.5t-15.5 37.5t15.5 37.5t37.5 15.5t37.5 -15.5t15.5 -37.5t-15.5 -37.5t-37.5 -15.5z" />
    <glyph glyph-name="copyright" unicode="&#xa9;" horiz-adv-x="856" 
d="M429 155q-90 0 -141 53.5t-51 144.5v8q0 89 54 144t138 55q71 0 117 -35.5t52 -102.5h-76q-12 78 -93 78q-52 0 -82.5 -37t-30.5 -102v-7q0 -66 29.5 -102t83.5 -36q89 0 101 83h72q-8 -70 -54 -107t-119 -37zM427 33q131 0 225.5 92.5t94.5 233.5q0 139 -93.5 231
t-224.5 92q-134 0 -227 -92t-93 -233t94 -232.5t224 -91.5zM427 -9q-154 0 -260 105.5t-106 260.5q0 153 107 260t261 107q155 0 260.5 -106t105.5 -259q0 -156 -106.5 -262t-261.5 -106z" />
    <glyph glyph-name="ordfeminine" unicode="&#xaa;" horiz-adv-x="431" 
d="M176 290q-61 0 -100.5 31.5t-39.5 92.5q0 68 59.5 99.5t152.5 31.5h58v26q0 48 -20 69t-65 21q-79 0 -90 -68h-77q6 66 53.5 98.5t117.5 32.5q159 0 159 -152v-274h-78v52q-45 -60 -130 -60zM190 351q52 0 84 24.5t32 69.5v46h-56q-135 0 -135 -75q0 -65 75 -65z" />
    <glyph glyph-name="guillemotleft" unicode="&#xab;" horiz-adv-x="512" 
d="M65 261l130 178h82l-125 -178l125 -178h-82zM243 261l130 178h82l-125 -178l125 -178h-82z" />
    <glyph glyph-name="uni00AD" unicode="&#xad;" horiz-adv-x="346" 
d="M66 314h214v-78h-214v78z" />
    <glyph glyph-name="registered" unicode="&#xae;" horiz-adv-x="526" 
d="M187 615h77q84 0 84 -66v-1q0 -46 -45 -59l58 -93h-50l-53 85h-23v-85h-48v219zM263 514q38 0 38 32v1q0 31 -38 31h-28v-64h28zM263 318q78 0 130 52t52 133q0 82 -51 133.5t-131 51.5t-131 -52t-51 -134q0 -81 52 -132.5t130 -51.5zM263 282q-93 0 -157.5 63.5
t-64.5 156.5t64.5 157.5t157.5 64.5q94 0 158 -64t64 -157t-64.5 -157t-157.5 -64z" />
    <glyph glyph-name="macron" unicode="&#xaf;" horiz-adv-x="412" 
d="M75 712h262v-64h-262v64z" />
    <glyph glyph-name="degree" unicode="&#xb0;" horiz-adv-x="439" 
d="M220 464q39 0 64 28.5t25 71.5q0 45 -25 73.5t-64 28.5q-41 0 -67 -29t-26 -73q0 -43 26 -71.5t67 -28.5zM220 406q-68 0 -116 46.5t-48 111.5q0 66 48 113t116 47q67 0 115 -47t48 -113q0 -65 -48 -111.5t-115 -46.5z" />
    <glyph glyph-name="plusminus" unicode="&#xb1;" horiz-adv-x="531" 
d="M229 327h-187v70h187v182h73v-182h187v-70h-187v-182h-73v182zM42 70h447v-70h-447v70z" />
    <glyph glyph-name="twosuperior" unicode="&#xb2;" horiz-adv-x="298" 
d="M14 384l128 136q54 57 54 97q0 23 -13 36.5t-37 13.5q-50 0 -60 -66h-61q3 57 35.5 87.5t87.5 30.5q53 0 83.5 -27.5t30.5 -73.5q0 -58 -66 -122l-73 -72h142v-51h-251v11z" />
    <glyph glyph-name="threesuperior" unicode="&#xb3;" horiz-adv-x="323" 
d="M158 368q-62 0 -95.5 29.5t-35.5 81.5h61q7 -61 68 -61q63 0 63 54t-60 54h-26v47h25q56 0 56 49q0 21 -13.5 34t-38.5 13q-26 0 -42.5 -14.5t-19.5 -40.5h-61q3 47 36 76t88 29q53 0 84 -26t31 -66q0 -54 -57 -74q67 -15 67 -82q0 -48 -35 -75.5t-95 -27.5z" />
    <glyph glyph-name="acute" unicode="&#xb4;" horiz-adv-x="412" 
d="M229 760h104l-104 -147h-62z" />
    <glyph glyph-name="mu" unicode="&#xb5;" horiz-adv-x="599" 
d="M84 523h83v-334q0 -126 121 -126q60 0 102 38t42 105v317h83v-523h-83v83q-19 -39 -60 -64t-98 -25q-76 0 -107 55v-231h-83v705z" />
    <glyph glyph-name="paragraph" unicode="&#xb6;" horiz-adv-x="600" 
d="M282 346h-14q-98 0 -157.5 46.5t-59.5 134.5q0 92 60 140t157 48h232v-815h-69v758h-81v-758h-68v446z" />
    <glyph glyph-name="periodcentered" unicode="&#xb7;" horiz-adv-x="294" 
d="M147 263q-26 0 -45 18.5t-19 45.5t19 45.5t45 18.5t45 -18.5t19 -45.5t-19 -45.5t-45 -18.5z" />
    <glyph glyph-name="cedilla" unicode="&#xb8;" horiz-adv-x="412" 
d="M214 -214q-44 0 -70.5 22.5t-29.5 61.5h54q8 -36 43 -36q18 0 29 10t11 26t-10 25t-26 9q-15 0 -28 -8l-32 28l42 76h53l-29 -53q38 4 66 -16.5t28 -64.5q0 -38 -29 -59t-72 -21z" />
    <glyph glyph-name="onesuperior" unicode="&#xb9;" horiz-adv-x="243" 
d="M111 649l-81 -54v59l89 61h60v-342h-68v276z" />
    <glyph glyph-name="ordmasculine" unicode="&#xba;" horiz-adv-x="505" 
d="M253 354q59 0 93 40.5t34 109.5v6q0 69 -34 109.5t-93 40.5q-60 0 -94 -40.5t-34 -109.5v-6q0 -69 34 -109.5t94 -40.5zM252 290q-91 0 -150 60t-59 153v6q0 95 59.5 155t150.5 60t150 -59.5t59 -153.5v-6q0 -96 -59.5 -155.5t-150.5 -59.5z" />
    <glyph glyph-name="guillemotright" unicode="&#xbb;" horiz-adv-x="512" 
d="M182 261l-125 178h82l130 -178l-130 -178h-82zM360 261l-125 178h82l130 -178l-130 -178h-82z" />
    <glyph glyph-name="onequarter" unicode="&#xbc;" horiz-adv-x="690" 
d="M114 649l-81 -54v59l89 61h60v-342h-68v276zM562 715h66l-507 -715h-66zM552 69h-172v24l153 249h83v-224h45v-49h-45v-69h-64v69zM553 118v173l-101 -173h101z" />
    <glyph glyph-name="onehalf" unicode="&#xbd;" horiz-adv-x="689" 
d="M114 649l-81 -54v59l89 61h60v-342h-68v276zM549 715h66l-507 -715h-66zM401 11l128 136q54 57 54 97q0 23 -13 36.5t-37 13.5q-50 0 -60 -66h-61q3 57 35.5 87.5t87.5 30.5q53 0 83.5 -27.5t30.5 -73.5q0 -58 -66 -122l-73 -72h142v-51h-251v11z" />
    <glyph glyph-name="threequarters" unicode="&#xbe;" horiz-adv-x="693" 
d="M161 368q-62 0 -95.5 29.5t-35.5 81.5h61q7 -61 68 -61q63 0 63 54t-60 54h-26v47h25q56 0 56 49q0 21 -13.5 34t-38.5 13q-26 0 -42.5 -14.5t-19.5 -40.5h-61q3 47 36 76t88 29q53 0 84 -26t31 -66q0 -54 -57 -74q67 -15 67 -82q0 -48 -35 -75.5t-95 -27.5zM598 715h66
l-507 -715h-66zM552 69h-172v24l153 249h83v-224h45v-49h-45v-69h-64v69zM553 118v173l-101 -173h101z" />
    <glyph glyph-name="questiondown" unicode="&#xbf;" horiz-adv-x="501" 
d="M316 346q0 -37 -17 -72.5t-35 -56t-51 -51.5q-24 -24 -37 -39.5t-24.5 -38t-11.5 -45.5q0 -100 107 -100q57 0 92.5 35t40.5 95h78q-6 -89 -63.5 -144t-148.5 -55q-95 0 -142.5 48t-47.5 118q0 35 16.5 67.5t33 51t48.5 48.5q29 27 44.5 44.5t29.5 45t14 56.5v43h74v-50z
M281 602q27 0 45.5 -18t18.5 -45t-19 -45.5t-45 -18.5t-45 18.5t-19 45.5t18.5 45t45.5 18z" />
    <glyph glyph-name="Agrave" unicode="&#xc0;" horiz-adv-x="686" 
d="M288 715h114l242 -715h-86l-70 206h-295l-69 -206h-82zM217 275h248l-124 368zM220 898h104l56 -127h-62z" />
    <glyph glyph-name="Aacute" unicode="&#xc1;" horiz-adv-x="686" 
d="M288 715h114l242 -715h-86l-70 206h-295l-69 -206h-82zM217 275h248l-124 368zM362 898h104l-98 -127h-62z" />
    <glyph glyph-name="Acircumflex" unicode="&#xc2;" horiz-adv-x="686" 
d="M288 715h114l242 -715h-86l-70 206h-295l-69 -206h-82zM217 275h248l-124 368zM306 898h75l107 -127h-61l-85 58l-85 -58h-59z" />
    <glyph glyph-name="Atilde" unicode="&#xc3;" horiz-adv-x="686" 
d="M288 715h114l242 -715h-86l-70 206h-295l-69 -206h-82zM217 275h248l-124 368zM397 774q-23 0 -59 21.5t-49 21.5q-14 0 -25 -12.5t-15 -32.5h-60q6 53 34 84.5t67 31.5q23 0 58.5 -21.5t48.5 -21.5q14 0 25 12.5t15 32.5h60q-6 -53 -33.5 -84.5t-66.5 -31.5z" />
    <glyph glyph-name="Adieresis" unicode="&#xc4;" horiz-adv-x="686" 
d="M288 715h114l242 -715h-86l-70 206h-295l-69 -206h-82zM217 275h248l-124 368zM241 789q-22 0 -37.5 15.5t-15.5 37.5t15.5 37.5t37.5 15.5t37.5 -15.5t15.5 -37.5t-15.5 -37.5t-37.5 -15.5zM444 789q-22 0 -37.5 15.5t-15.5 37.5t15.5 37.5t37.5 15.5t37.5 -15.5
t15.5 -37.5t-15.5 -37.5t-37.5 -15.5z" />
    <glyph glyph-name="Aring" unicode="&#xc5;" horiz-adv-x="686" 
d="M288 715h114l242 -715h-86l-70 206h-295l-69 -206h-82zM217 275h248l-124 368zM343 805q23 0 38 16.5t15 41.5t-15 41.5t-38 16.5t-38 -16.5t-15 -41.5t15 -41.5t38 -16.5zM343 759q-44 0 -75.5 30.5t-31.5 73.5t31.5 73.5t75.5 30.5t75.5 -30.5t31.5 -73.5t-31.5 -73.5
t-75.5 -30.5z" />
    <glyph glyph-name="AE" unicode="&#xc6;" horiz-adv-x="962" 
d="M405 715h492v-71h-330v-243h266v-71h-266v-259h348v-71h-435v207h-252l-105 -207h-88zM262 275h218v369h-31z" />
    <glyph glyph-name="Ccedilla" unicode="&#xc7;" horiz-adv-x="742" 
d="M387 -214q-44 0 -70.5 22.5t-29.5 61.5h54q8 -36 43 -36q18 0 29 10t11 26t-10 25t-26 9q-15 0 -28 -8l-32 28l37 68q-142 10 -223 106.5t-81 254.5v8q0 159 95 262t241 103q117 0 197.5 -61t92.5 -173h-86q-15 83 -63.5 124t-139.5 41q-111 0 -179 -80.5t-68 -214.5v-8
q0 -137 65.5 -214.5t180.5 -77.5q89 0 145.5 44.5t70.5 130.5h81q-18 -116 -90 -178t-186 -67l-24 -45q38 4 66 -16.5t28 -64.5q0 -38 -29 -59t-72 -21z" />
    <glyph glyph-name="Egrave" unicode="&#xc8;" horiz-adv-x="578" 
d="M96 715h417v-71h-330v-243h266v-71h-266v-259h348v-71h-435v715zM189 898h104l56 -127h-62z" />
    <glyph glyph-name="Eacute" unicode="&#xc9;" horiz-adv-x="578" 
d="M96 715h417v-71h-330v-243h266v-71h-266v-259h348v-71h-435v715zM331 898h104l-98 -127h-62z" />
    <glyph glyph-name="Ecircumflex" unicode="&#xca;" horiz-adv-x="578" 
d="M96 715h417v-71h-330v-243h266v-71h-266v-259h348v-71h-435v715zM275 898h75l107 -127h-61l-85 58l-85 -58h-59z" />
    <glyph glyph-name="Edieresis" unicode="&#xcb;" horiz-adv-x="578" 
d="M96 715h417v-71h-330v-243h266v-71h-266v-259h348v-71h-435v715zM210 789q-22 0 -37.5 15.5t-15.5 37.5t15.5 37.5t37.5 15.5t37.5 -15.5t15.5 -37.5t-15.5 -37.5t-37.5 -15.5zM413 789q-22 0 -37.5 15.5t-15.5 37.5t15.5 37.5t37.5 15.5t37.5 -15.5t15.5 -37.5
t-15.5 -37.5t-37.5 -15.5z" />
    <glyph glyph-name="Igrave" unicode="&#xcc;" horiz-adv-x="289" 
d="M101 715h87v-715h-87v715zM21 898h104l56 -127h-62z" />
    <glyph glyph-name="Iacute" unicode="&#xcd;" horiz-adv-x="289" 
d="M101 715h87v-715h-87v715zM163 898h104l-98 -127h-62z" />
    <glyph glyph-name="Icircumflex" unicode="&#xce;" horiz-adv-x="289" 
d="M101 715h87v-715h-87v715zM107 898h75l107 -127h-61l-85 58l-85 -58h-59z" />
    <glyph glyph-name="Idieresis" unicode="&#xcf;" horiz-adv-x="289" 
d="M101 715h87v-715h-87v715zM42 789q-22 0 -37.5 15.5t-15.5 37.5t15.5 37.5t37.5 15.5t37.5 -15.5t15.5 -37.5t-15.5 -37.5t-37.5 -15.5zM245 789q-22 0 -37.5 15.5t-15.5 37.5t15.5 37.5t37.5 15.5t37.5 -15.5t15.5 -37.5t-15.5 -37.5t-37.5 -15.5z" />
    <glyph glyph-name="Eth" unicode="&#xd0;" horiz-adv-x="728" 
d="M40 392h76v323h189q177 0 269.5 -97t92.5 -254v-9q0 -157 -92 -256t-272 -99h-187v325h-76v67zM301 71q135 0 205.5 75.5t70.5 209.5v8q0 131 -67.5 206t-209.5 75h-97v-253h207v-67h-207v-254h98z" />
    <glyph glyph-name="Ntilde" unicode="&#xd1;" horiz-adv-x="736" 
d="M96 715h113l348 -591v591h83v-715h-100l-361 613v-613h-83v715zM432 774q-23 0 -59 21.5t-49 21.5q-14 0 -25 -12.5t-15 -32.5h-60q6 53 34 84.5t67 31.5q23 0 58.5 -21.5t48.5 -21.5q14 0 25 12.5t15 32.5h60q-6 -53 -33.5 -84.5t-66.5 -31.5z" />
    <glyph glyph-name="Ograve" unicode="&#xd2;" horiz-adv-x="823" 
d="M415 63q118 0 187.5 81t69.5 212v8q0 124 -70 207t-189 83q-122 0 -192 -80.5t-70 -211.5v-8q0 -128 75.5 -209.5t188.5 -81.5zM415 -9q-156 0 -255 104.5t-99 257.5v8q0 155 98.5 259t253.5 104t252 -103.5t97 -257.5v-8q0 -154 -97 -259t-250 -105zM288 898h104
l56 -127h-62z" />
    <glyph glyph-name="Oacute" unicode="&#xd3;" horiz-adv-x="823" 
d="M415 63q118 0 187.5 81t69.5 212v8q0 124 -70 207t-189 83q-122 0 -192 -80.5t-70 -211.5v-8q0 -128 75.5 -209.5t188.5 -81.5zM415 -9q-156 0 -255 104.5t-99 257.5v8q0 155 98.5 259t253.5 104t252 -103.5t97 -257.5v-8q0 -154 -97 -259t-250 -105zM430 898h104
l-98 -127h-62z" />
    <glyph glyph-name="Ocircumflex" unicode="&#xd4;" horiz-adv-x="823" 
d="M415 63q118 0 187.5 81t69.5 212v8q0 124 -70 207t-189 83q-122 0 -192 -80.5t-70 -211.5v-8q0 -128 75.5 -209.5t188.5 -81.5zM415 -9q-156 0 -255 104.5t-99 257.5v8q0 155 98.5 259t253.5 104t252 -103.5t97 -257.5v-8q0 -154 -97 -259t-250 -105zM374 898h75
l107 -127h-61l-85 58l-85 -58h-59z" />
    <glyph glyph-name="Otilde" unicode="&#xd5;" horiz-adv-x="823" 
d="M415 63q118 0 187.5 81t69.5 212v8q0 124 -70 207t-189 83q-122 0 -192 -80.5t-70 -211.5v-8q0 -128 75.5 -209.5t188.5 -81.5zM415 -9q-156 0 -255 104.5t-99 257.5v8q0 155 98.5 259t253.5 104t252 -103.5t97 -257.5v-8q0 -154 -97 -259t-250 -105zM465 774
q-23 0 -59 21.5t-49 21.5q-14 0 -25 -12.5t-15 -32.5h-60q6 53 34 84.5t67 31.5q23 0 58.5 -21.5t48.5 -21.5q14 0 25 12.5t15 32.5h60q-6 -53 -33.5 -84.5t-66.5 -31.5z" />
    <glyph glyph-name="Odieresis" unicode="&#xd6;" horiz-adv-x="823" 
d="M415 63q118 0 187.5 81t69.5 212v8q0 124 -70 207t-189 83q-122 0 -192 -80.5t-70 -211.5v-8q0 -128 75.5 -209.5t188.5 -81.5zM415 -9q-156 0 -255 104.5t-99 257.5v8q0 155 98.5 259t253.5 104t252 -103.5t97 -257.5v-8q0 -154 -97 -259t-250 -105zM309 789
q-22 0 -37.5 15.5t-15.5 37.5t15.5 37.5t37.5 15.5t37.5 -15.5t15.5 -37.5t-15.5 -37.5t-37.5 -15.5zM512 789q-22 0 -37.5 15.5t-15.5 37.5t15.5 37.5t37.5 15.5t37.5 -15.5t15.5 -37.5t-15.5 -37.5t-37.5 -15.5z" />
    <glyph glyph-name="multiply" unicode="&#xd7;" horiz-adv-x="481" 
d="M39 179l154 154l-154 154l47 48l154 -155l154 155l48 -48l-154 -154l154 -154l-48 -48l-154 155l-154 -155z" />
    <glyph glyph-name="Oslash" unicode="&#xd8;" horiz-adv-x="823" 
d="M41 12l98 107q-78 98 -78 234v8q0 155 98.5 259t253.5 104q123 0 214 -70l81 88l45 -45l-79 -87q88 -101 88 -247v-8q0 -154 -97 -259t-250 -105q-136 0 -232 82l-97 -106zM415 63q118 0 187.5 81t69.5 212v8q0 112 -52 188l-384 -421q71 -68 179 -68zM151 354
q0 -99 44 -173l382 418q-68 55 -164 55q-122 0 -192 -80.5t-70 -211.5v-8z" />
    <glyph glyph-name="Ugrave" unicode="&#xd9;" horiz-adv-x="708" 
d="M347 -9q-124 0 -190.5 69.5t-66.5 200.5v454h87v-444q0 -111 40.5 -159.5t131.5 -48.5q92 0 137 48t45 173v431h87v-443q0 -134 -68 -207.5t-203 -73.5zM231 898h104l56 -127h-62z" />
    <glyph glyph-name="Uacute" unicode="&#xda;" horiz-adv-x="708" 
d="M347 -9q-124 0 -190.5 69.5t-66.5 200.5v454h87v-444q0 -111 40.5 -159.5t131.5 -48.5q92 0 137 48t45 173v431h87v-443q0 -134 -68 -207.5t-203 -73.5zM373 898h104l-98 -127h-62z" />
    <glyph glyph-name="Ucircumflex" unicode="&#xdb;" horiz-adv-x="708" 
d="M347 -9q-124 0 -190.5 69.5t-66.5 200.5v454h87v-444q0 -111 40.5 -159.5t131.5 -48.5q92 0 137 48t45 173v431h87v-443q0 -134 -68 -207.5t-203 -73.5zM317 898h75l107 -127h-61l-85 58l-85 -58h-59z" />
    <glyph glyph-name="Udieresis" unicode="&#xdc;" horiz-adv-x="708" 
d="M347 -9q-124 0 -190.5 69.5t-66.5 200.5v454h87v-444q0 -111 40.5 -159.5t131.5 -48.5q92 0 137 48t45 173v431h87v-443q0 -134 -68 -207.5t-203 -73.5zM252 789q-22 0 -37.5 15.5t-15.5 37.5t15.5 37.5t37.5 15.5t37.5 -15.5t15.5 -37.5t-15.5 -37.5t-37.5 -15.5z
M455 789q-22 0 -37.5 15.5t-15.5 37.5t15.5 37.5t37.5 15.5t37.5 -15.5t15.5 -37.5t-15.5 -37.5t-37.5 -15.5z" />
    <glyph glyph-name="Yacute" unicode="&#xdd;" horiz-adv-x="610" 
d="M268 312l-239 403h98l187 -332l180 332h87l-226 -404v-311h-87v312zM324 898h104l-98 -127h-62z" />
    <glyph glyph-name="Thorn" unicode="&#xde;" horiz-adv-x="593" 
d="M96 715h87v-134h116q111 0 180.5 -50t69.5 -155v-4q0 -107 -69.5 -157t-180.5 -50h-116v-165h-87v715zM305 234q157 0 157 138v4q0 73 -40 104t-117 31h-122v-277h122z" />
    <glyph glyph-name="germandbls" unicode="&#xdf;" horiz-adv-x="602" 
d="M341 -9q-58 0 -92 16v71q38 -18 88 -18q130 0 130 150v7q0 82 -53.5 129t-142.5 45v71q77 -2 113 37.5t36 93.5v4q0 111 -122 111q-57 0 -91 -37.5t-34 -100.5v-570h-83v566q0 93 61 151.5t148 58.5q89 0 144.5 -49.5t55.5 -129.5v-4q0 -51 -31.5 -96.5t-87.5 -64.5
q78 -20 125.5 -78t47.5 -136v-6q0 -80 -31.5 -131.5t-77 -70.5t-103.5 -19z" />
    <glyph glyph-name="agrave" unicode="&#xe0;" horiz-adv-x="552" 
d="M221 -9q-77 0 -125.5 38.5t-48.5 115.5q0 43 21.5 75.5t59.5 51t83 27t98 8.5h75v38q0 63 -26 90.5t-86 27.5q-108 0 -120 -94h-83q8 84 65.5 123.5t141.5 39.5q191 0 191 -187v-345h-83v66q-60 -75 -163 -75zM229 57q68 0 111.5 33.5t43.5 92.5v65h-72q-182 0 -182 -103
q0 -88 99 -88zM148 760h104l62 -147h-62z" />
    <glyph glyph-name="aacute" unicode="&#xe1;" horiz-adv-x="552" 
d="M221 -9q-77 0 -125.5 38.5t-48.5 115.5q0 43 21.5 75.5t59.5 51t83 27t98 8.5h75v38q0 63 -26 90.5t-86 27.5q-108 0 -120 -94h-83q8 84 65.5 123.5t141.5 39.5q191 0 191 -187v-345h-83v66q-60 -75 -163 -75zM229 57q68 0 111.5 33.5t43.5 92.5v65h-72q-182 0 -182 -103
q0 -88 99 -88zM302 760h104l-104 -147h-62z" />
    <glyph glyph-name="acircumflex" unicode="&#xe2;" horiz-adv-x="552" 
d="M221 -9q-77 0 -125.5 38.5t-48.5 115.5q0 43 21.5 75.5t59.5 51t83 27t98 8.5h75v38q0 63 -26 90.5t-86 27.5q-108 0 -120 -94h-83q8 84 65.5 123.5t141.5 39.5q191 0 191 -187v-345h-83v66q-60 -75 -163 -75zM229 57q68 0 111.5 33.5t43.5 92.5v65h-72q-182 0 -182 -103
q0 -88 99 -88zM229 757h75l107 -144h-61l-85 75l-85 -75h-59z" />
    <glyph glyph-name="atilde" unicode="&#xe3;" horiz-adv-x="552" 
d="M221 -9q-77 0 -125.5 38.5t-48.5 115.5q0 43 21.5 75.5t59.5 51t83 27t98 8.5h75v38q0 63 -26 90.5t-86 27.5q-108 0 -120 -94h-83q8 84 65.5 123.5t141.5 39.5q191 0 191 -187v-345h-83v66q-60 -75 -163 -75zM229 57q68 0 111.5 33.5t43.5 92.5v65h-72q-182 0 -182 -103
q0 -88 99 -88zM331 619q-23 0 -59 21.5t-49 21.5q-14 0 -25 -12.5t-15 -32.5h-60q6 53 34 84.5t67 31.5q23 0 58.5 -21.5t48.5 -21.5q14 0 25 12.5t15 32.5h60q-6 -53 -33.5 -84.5t-66.5 -31.5z" />
    <glyph glyph-name="adieresis" unicode="&#xe4;" horiz-adv-x="552" 
d="M221 -9q-77 0 -125.5 38.5t-48.5 115.5q0 43 21.5 75.5t59.5 51t83 27t98 8.5h75v38q0 63 -26 90.5t-86 27.5q-108 0 -120 -94h-83q8 84 65.5 123.5t141.5 39.5q191 0 191 -187v-345h-83v66q-60 -75 -163 -75zM229 57q68 0 111.5 33.5t43.5 92.5v65h-72q-182 0 -182 -103
q0 -88 99 -88zM183 634q-22 0 -37.5 15.5t-15.5 37.5t15.5 37.5t37.5 15.5t37.5 -15.5t15.5 -37.5t-15.5 -37.5t-37.5 -15.5zM371 634q-22 0 -37.5 15.5t-15.5 37.5t15.5 37.5t37.5 15.5t37.5 -15.5t15.5 -37.5t-15.5 -37.5t-37.5 -15.5z" />
    <glyph glyph-name="aring" unicode="&#xe5;" horiz-adv-x="552" 
d="M221 -9q-77 0 -125.5 38.5t-48.5 115.5q0 43 21.5 75.5t59.5 51t83 27t98 8.5h75v38q0 63 -26 90.5t-86 27.5q-108 0 -120 -94h-83q8 84 65.5 123.5t141.5 39.5q191 0 191 -187v-345h-83v66q-60 -75 -163 -75zM229 57q68 0 111.5 33.5t43.5 92.5v65h-72q-182 0 -182 -103
q0 -88 99 -88zM277 644q23 0 38 16.5t15 41.5t-15 41.5t-38 16.5t-38 -16.5t-15 -41.5t15 -41.5t38 -16.5zM277 598q-44 0 -75.5 30.5t-31.5 73.5t31.5 73.5t75.5 30.5t75.5 -30.5t31.5 -73.5t-31.5 -73.5t-75.5 -30.5z" />
    <glyph glyph-name="ae" unicode="&#xe6;" horiz-adv-x="892" 
d="M622 -9q-133 0 -197 108q-36 -57 -84 -82.5t-120 -25.5q-77 0 -125.5 38.5t-48.5 115.5q0 59 38 97t93.5 53t127.5 15h78v34q0 63 -27 91t-85 28q-108 0 -120 -94h-83q8 84 65.5 123.5t141.5 39.5q123 0 164 -89q64 89 176 89q97 0 162 -64t65 -196v-25h-379
q6 -187 159 -187q117 0 133 91h83q-14 -77 -72 -118.5t-145 -41.5zM229 57q68 0 111.5 33.5t43.5 92.5v64h-75q-179 0 -179 -102q0 -88 99 -88zM758 310q-6 81 -41.5 117t-100.5 36q-60 0 -99.5 -40.5t-49.5 -112.5h291z" />
    <glyph glyph-name="ccedilla" unicode="&#xe7;" horiz-adv-x="582" 
d="M292 -214q-44 0 -70.5 22.5t-29.5 61.5h54q8 -36 43 -36q18 0 29 10t11 26t-10 25t-26 9q-15 0 -28 -8l-32 28l38 69q-98 12 -159 82.5t-61 180.5v8q0 118 73.5 193t180.5 75q90 0 153 -44.5t74 -138.5h-82q-18 114 -145 114q-73 0 -120.5 -54.5t-47.5 -144.5v-8
q0 -94 46.5 -145t124.5 -51q59 0 101.5 33.5t48.5 94.5h77q-8 -82 -66.5 -136t-145.5 -60l-24 -45q38 4 66 -16.5t28 -64.5q0 -38 -29 -59t-72 -21z" />
    <glyph glyph-name="egrave" unicode="&#xe8;" horiz-adv-x="580" 
d="M304 -9q-112 0 -182.5 73t-70.5 192v8q0 118 68.5 193t176.5 75q100 0 167.5 -64.5t67.5 -195.5v-27h-394q6 -185 168 -185q123 0 139 91h83q-14 -78 -73 -119t-150 -41zM446 312q-11 151 -150 151q-63 0 -104 -40t-52 -111h306zM167 760h104l62 -147h-62z" />
    <glyph glyph-name="eacute" unicode="&#xe9;" horiz-adv-x="580" 
d="M304 -9q-112 0 -182.5 73t-70.5 192v8q0 118 68.5 193t176.5 75q100 0 167.5 -64.5t67.5 -195.5v-27h-394q6 -185 168 -185q123 0 139 91h83q-14 -78 -73 -119t-150 -41zM446 312q-11 151 -150 151q-63 0 -104 -40t-52 -111h306zM321 760h104l-104 -147h-62z" />
    <glyph glyph-name="ecircumflex" unicode="&#xea;" horiz-adv-x="580" 
d="M304 -9q-112 0 -182.5 73t-70.5 192v8q0 118 68.5 193t176.5 75q100 0 167.5 -64.5t67.5 -195.5v-27h-394q6 -185 168 -185q123 0 139 91h83q-14 -78 -73 -119t-150 -41zM446 312q-11 151 -150 151q-63 0 -104 -40t-52 -111h306zM259 757h75l107 -144h-61l-85 75l-85 -75
h-59z" />
    <glyph glyph-name="edieresis" unicode="&#xeb;" horiz-adv-x="580" 
d="M304 -9q-112 0 -182.5 73t-70.5 192v8q0 118 68.5 193t176.5 75q100 0 167.5 -64.5t67.5 -195.5v-27h-394q6 -185 168 -185q123 0 139 91h83q-14 -78 -73 -119t-150 -41zM446 312q-11 151 -150 151q-63 0 -104 -40t-52 -111h306zM202 634q-22 0 -37.5 15.5t-15.5 37.5
t15.5 37.5t37.5 15.5t37.5 -15.5t15.5 -37.5t-15.5 -37.5t-37.5 -15.5zM390 634q-22 0 -37.5 15.5t-15.5 37.5t15.5 37.5t37.5 15.5t37.5 -15.5t15.5 -37.5t-15.5 -37.5t-37.5 -15.5z" />
    <glyph glyph-name="igrave" unicode="&#xec;" horiz-adv-x="267" 
d="M92 523h83v-523h-83v523zM4 760h104l62 -147h-62z" />
    <glyph glyph-name="iacute" unicode="&#xed;" horiz-adv-x="267" 
d="M92 523h83v-523h-83v523zM158 760h104l-104 -147h-62z" />
    <glyph glyph-name="icircumflex" unicode="&#xee;" horiz-adv-x="267" 
d="M92 523h83v-523h-83v523zM96 757h75l107 -144h-61l-85 75l-85 -75h-59z" />
    <glyph glyph-name="idieresis" unicode="&#xef;" horiz-adv-x="267" 
d="M43 634q-22 0 -37.5 15.5t-15.5 37.5t15.5 37.5t37.5 15.5t37.5 -15.5t15.5 -37.5t-15.5 -37.5t-37.5 -15.5zM223 634q-22 0 -37.5 15.5t-15.5 37.5t15.5 37.5t37.5 15.5t37.5 -15.5t15.5 -37.5t-15.5 -37.5t-37.5 -15.5zM92 523h83v-523h-83v523z" />
    <glyph glyph-name="eth" unicode="&#xf0;" horiz-adv-x="616" 
d="M162 621l97 57q-54 47 -124 95h107q52 -31 84 -55l83 49l29 -49l-67 -39q194 -184 194 -395v-22q0 -118 -73.5 -194.5t-184.5 -76.5t-183.5 75.5t-72.5 190.5v8q0 115 70 191t168 76q93 0 151 -72q-44 87 -137 179l-112 -66zM308 60q78 0 124.5 54t46.5 143v7
q0 91 -46 145t-124 54q-79 0 -125.5 -54t-46.5 -144v-8q0 -91 45.5 -144t125.5 -53z" />
    <glyph glyph-name="ntilde" unicode="&#xf1;" horiz-adv-x="610" 
d="M90 523h83v-83q20 40 63 66t105 26q86 0 135 -51t49 -160v-321h-83v327q0 69 -30 101t-93 32q-61 0 -103.5 -38t-42.5 -105v-317h-83v523zM358 619q-23 0 -59 21.5t-49 21.5q-14 0 -25 -12.5t-15 -32.5h-60q6 53 34 84.5t67 31.5q23 0 58.5 -21.5t48.5 -21.5
q14 0 25 12.5t15 32.5h60q-6 -53 -33.5 -84.5t-66.5 -31.5z" />
    <glyph glyph-name="ograve" unicode="&#xf2;" horiz-adv-x="616" 
d="M308 60q78 0 124.5 54t46.5 143v7q0 91 -46.5 145t-124.5 54q-79 0 -125 -54t-46 -144v-8q0 -91 45.5 -144t125.5 -53zM307 -9q-111 0 -183.5 75.5t-72.5 190.5v8q0 117 72.5 192t184.5 75t184.5 -74.5t72.5 -191.5v-8q0 -118 -73 -192.5t-185 -74.5zM179 760h104
l62 -147h-62z" />
    <glyph glyph-name="oacute" unicode="&#xf3;" horiz-adv-x="616" 
d="M308 60q78 0 124.5 54t46.5 143v7q0 91 -46.5 145t-124.5 54q-79 0 -125 -54t-46 -144v-8q0 -91 45.5 -144t125.5 -53zM307 -9q-111 0 -183.5 75.5t-72.5 190.5v8q0 117 72.5 192t184.5 75t184.5 -74.5t72.5 -191.5v-8q0 -118 -73 -192.5t-185 -74.5zM333 760h104
l-104 -147h-62z" />
    <glyph glyph-name="ocircumflex" unicode="&#xf4;" horiz-adv-x="616" 
d="M308 60q78 0 124.5 54t46.5 143v7q0 91 -46.5 145t-124.5 54q-79 0 -125 -54t-46 -144v-8q0 -91 45.5 -144t125.5 -53zM307 -9q-111 0 -183.5 75.5t-72.5 190.5v8q0 117 72.5 192t184.5 75t184.5 -74.5t72.5 -191.5v-8q0 -118 -73 -192.5t-185 -74.5zM271 757h75
l107 -144h-61l-85 75l-85 -75h-59z" />
    <glyph glyph-name="otilde" unicode="&#xf5;" horiz-adv-x="616" 
d="M308 60q78 0 124.5 54t46.5 143v7q0 91 -46.5 145t-124.5 54q-79 0 -125 -54t-46 -144v-8q0 -91 45.5 -144t125.5 -53zM307 -9q-111 0 -183.5 75.5t-72.5 190.5v8q0 117 72.5 192t184.5 75t184.5 -74.5t72.5 -191.5v-8q0 -118 -73 -192.5t-185 -74.5zM362 619
q-23 0 -59 21.5t-49 21.5q-14 0 -25 -12.5t-15 -32.5h-60q6 53 34 84.5t67 31.5q23 0 58.5 -21.5t48.5 -21.5q14 0 25 12.5t15 32.5h60q-6 -53 -33.5 -84.5t-66.5 -31.5z" />
    <glyph glyph-name="odieresis" unicode="&#xf6;" horiz-adv-x="616" 
d="M308 60q78 0 124.5 54t46.5 143v7q0 91 -46.5 145t-124.5 54q-79 0 -125 -54t-46 -144v-8q0 -91 45.5 -144t125.5 -53zM307 -9q-111 0 -183.5 75.5t-72.5 190.5v8q0 117 72.5 192t184.5 75t184.5 -74.5t72.5 -191.5v-8q0 -118 -73 -192.5t-185 -74.5zM214 634
q-22 0 -37.5 15.5t-15.5 37.5t15.5 37.5t37.5 15.5t37.5 -15.5t15.5 -37.5t-15.5 -37.5t-37.5 -15.5zM402 634q-22 0 -37.5 15.5t-15.5 37.5t15.5 37.5t37.5 15.5t37.5 -15.5t15.5 -37.5t-15.5 -37.5t-37.5 -15.5z" />
    <glyph glyph-name="divide" unicode="&#xf7;" horiz-adv-x="531" 
d="M265 89q-26 0 -45 18.5t-19 45.5t19 45.5t45 18.5t45 -18.5t19 -45.5t-19 -45.5t-45 -18.5zM42 377h447v-70h-447v70zM265 467q-26 0 -45 18.5t-19 45.5t19 45.5t45 18.5t45 -18.5t19 -45.5t-19 -45.5t-45 -18.5z" />
    <glyph glyph-name="oslash" unicode="&#xf8;" horiz-adv-x="616" 
d="M29 1l77 85q-55 71 -55 171v8q0 117 72.5 192t184.5 75q89 0 156 -50l68 74l44 -38l-70 -77q59 -75 59 -175v-8q0 -118 -73 -192.5t-185 -74.5q-94 0 -160 54l-74 -82zM308 60q78 0 124.5 54t46.5 143v7q0 66 -27 117l-256 -281q44 -40 112 -40zM137 257q0 -65 24 -111
l253 280q-43 37 -106 37q-79 0 -125 -54t-46 -144v-8z" />
    <glyph glyph-name="ugrave" unicode="&#xf9;" horiz-adv-x="606" 
d="M267 -9q-83 0 -132.5 49t-49.5 152v331h83v-327q0 -69 29.5 -101t91.5 -32q60 0 102 38t42 105v317h83v-523h-83v83q-19 -40 -62.5 -66t-103.5 -26zM174 760h104l62 -147h-62z" />
    <glyph glyph-name="uacute" unicode="&#xfa;" horiz-adv-x="606" 
d="M267 -9q-83 0 -132.5 49t-49.5 152v331h83v-327q0 -69 29.5 -101t91.5 -32q60 0 102 38t42 105v317h83v-523h-83v83q-19 -40 -62.5 -66t-103.5 -26zM328 760h104l-104 -147h-62z" />
    <glyph glyph-name="ucircumflex" unicode="&#xfb;" horiz-adv-x="606" 
d="M267 -9q-83 0 -132.5 49t-49.5 152v331h83v-327q0 -69 29.5 -101t91.5 -32q60 0 102 38t42 105v317h83v-523h-83v83q-19 -40 -62.5 -66t-103.5 -26zM266 757h75l107 -144h-61l-85 75l-85 -75h-59z" />
    <glyph glyph-name="udieresis" unicode="&#xfc;" horiz-adv-x="606" 
d="M267 -9q-83 0 -132.5 49t-49.5 152v331h83v-327q0 -69 29.5 -101t91.5 -32q60 0 102 38t42 105v317h83v-523h-83v83q-19 -40 -62.5 -66t-103.5 -26zM209 634q-22 0 -37.5 15.5t-15.5 37.5t15.5 37.5t37.5 15.5t37.5 -15.5t15.5 -37.5t-15.5 -37.5t-37.5 -15.5zM397 634
q-22 0 -37.5 15.5t-15.5 37.5t15.5 37.5t37.5 15.5t37.5 -15.5t15.5 -37.5t-15.5 -37.5t-37.5 -15.5z" />
    <glyph glyph-name="yacute" unicode="&#xfd;" horiz-adv-x="541" 
d="M236 54l-205 469h89l160 -375l145 375h85l-289 -705h-84zM303 760h104l-104 -147h-62z" />
    <glyph glyph-name="thorn" unicode="&#xfe;" horiz-adv-x="639" 
d="M90 773h83v-338q23 40 72 68.5t105 28.5q105 0 171.5 -71t66.5 -192v-8q0 -121 -65.5 -195.5t-172.5 -74.5q-120 0 -177 95v-268h-83v955zM342 60q78 0 119 50.5t41 146.5v8q0 95 -45.5 146.5t-115.5 51.5q-76 0 -123.5 -50.5t-47.5 -147.5v-8q0 -97 46.5 -147t125.5 -50
z" />
    <glyph glyph-name="ydieresis" unicode="&#xff;" horiz-adv-x="541" 
d="M236 54l-205 469h89l160 -375l145 375h85l-289 -705h-84zM184 634q-22 0 -37.5 15.5t-15.5 37.5t15.5 37.5t37.5 15.5t37.5 -15.5t15.5 -37.5t-15.5 -37.5t-37.5 -15.5zM372 634q-22 0 -37.5 15.5t-15.5 37.5t15.5 37.5t37.5 15.5t37.5 -15.5t15.5 -37.5t-15.5 -37.5
t-37.5 -15.5z" />
    <glyph glyph-name="Amacron" unicode="&#x100;" horiz-adv-x="674" 
d="M288 715h114l242 -715h-86l-70 206h-295l-69 -206h-82zM217 275h248l-124 368zM210 850h266v-64h-266v64z" />
    <glyph glyph-name="amacron" unicode="&#x101;" horiz-adv-x="540" 
d="M221 -9q-77 0 -125.5 38.5t-48.5 115.5q0 43 21.5 75.5t59.5 51t83 27t98 8.5h75v38q0 63 -26 90.5t-86 27.5q-108 0 -120 -94h-83q8 84 65.5 123.5t141.5 39.5q191 0 191 -187v-345h-83v66q-60 -75 -163 -75zM229 57q68 0 111.5 33.5t43.5 92.5v65h-72q-182 0 -182 -103
q0 -88 99 -88zM146 712h262v-64h-262v64z" />
    <glyph glyph-name="Abreve" unicode="&#x102;" horiz-adv-x="674" 
d="M288 715h114l242 -715h-86l-70 206h-295l-69 -206h-82zM217 275h248l-124 368zM341 767q-54 0 -92 37.5t-40 94.5h66q11 -64 66 -64q59 0 72 64h64q-4 -57 -42.5 -94.5t-93.5 -37.5z" />
    <glyph glyph-name="abreve" unicode="&#x103;" horiz-adv-x="540" 
d="M221 -9q-77 0 -125.5 38.5t-48.5 115.5q0 43 21.5 75.5t59.5 51t83 27t98 8.5h75v38q0 63 -26 90.5t-86 27.5q-108 0 -120 -94h-83q8 84 65.5 123.5t141.5 39.5q191 0 191 -187v-345h-83v66q-60 -75 -163 -75zM229 57q68 0 111.5 33.5t43.5 92.5v65h-72q-182 0 -182 -103
q0 -88 99 -88zM275 619q-54 0 -92 37.5t-40 94.5h66q11 -64 66 -64q59 0 72 64h64q-4 -57 -42.5 -94.5t-93.5 -37.5z" />
    <glyph glyph-name="Aogonek" unicode="&#x104;" horiz-adv-x="674" 
d="M585 -182q-48 0 -76 21t-28 59q0 30 20 56t52 43l-71 209h-295l-69 -206h-82l246 715h114l241 -712q-77 -44 -77 -89q0 -36 38 -36q31 0 52 11v-59q-29 -12 -65 -12zM211 275h248l-124 368z" />
    <glyph glyph-name="aogonek" unicode="&#x105;" horiz-adv-x="540" 
d="M407 -182q-48 0 -76 21t-28 59q0 61 75 101v67q-60 -75 -163 -75q-77 0 -125.5 38.5t-48.5 115.5q0 43 21.5 75.5t59.5 51t83 27t98 8.5h75v38q0 63 -26 90.5t-86 27.5q-108 0 -120 -94h-83q8 84 65.5 123.5t141.5 39.5q191 0 191 -187v-341q-79 -45 -79 -90
q0 -36 38 -36q31 0 52 11v-59q-29 -12 -65 -12zM223 57q68 0 111.5 33.5t43.5 92.5v65h-72q-182 0 -182 -103q0 -88 99 -88z" />
    <glyph glyph-name="Cacute" unicode="&#x106;" horiz-adv-x="730" 
d="M395 -9q-155 0 -244.5 98t-89.5 264v8q0 159 95 262t241 103q117 0 197.5 -61t92.5 -173h-86q-15 83 -63.5 124t-139.5 41q-111 0 -179 -80.5t-68 -214.5v-8q0 -137 65.5 -214.5t180.5 -77.5q89 0 145.5 44.5t70.5 130.5h81q-18 -121 -97 -183.5t-202 -62.5zM418 898h104
l-98 -127h-62z" />
    <glyph glyph-name="cacute" unicode="&#x107;" horiz-adv-x="570" 
d="M307 -9q-112 0 -184 72.5t-72 192.5v8q0 118 73.5 193t180.5 75q90 0 153 -44.5t74 -138.5h-82q-18 114 -145 114q-73 0 -120.5 -54.5t-47.5 -144.5v-8q0 -94 46.5 -145t124.5 -51q59 0 101.5 33.5t48.5 94.5h77q-8 -86 -71.5 -141.5t-156.5 -55.5zM329 760h104
l-104 -147h-62z" />
    <glyph glyph-name="Ccircumflex" unicode="&#x108;" horiz-adv-x="730" 
d="M395 -9q-155 0 -244.5 98t-89.5 264v8q0 159 95 262t241 103q117 0 197.5 -61t92.5 -173h-86q-15 83 -63.5 124t-139.5 41q-111 0 -179 -80.5t-68 -214.5v-8q0 -137 65.5 -214.5t180.5 -77.5q89 0 145.5 44.5t70.5 130.5h81q-18 -121 -97 -183.5t-202 -62.5zM362 898h75
l107 -127h-61l-85 58l-85 -58h-59z" />
    <glyph glyph-name="ccircumflex" unicode="&#x109;" horiz-adv-x="570" 
d="M307 -9q-112 0 -184 72.5t-72 192.5v8q0 118 73.5 193t180.5 75q90 0 153 -44.5t74 -138.5h-82q-18 114 -145 114q-73 0 -120.5 -54.5t-47.5 -144.5v-8q0 -94 46.5 -145t124.5 -51q59 0 101.5 33.5t48.5 94.5h77q-8 -86 -71.5 -141.5t-156.5 -55.5zM267 757h75l107 -144
h-61l-85 75l-85 -75h-59z" />
    <glyph glyph-name="Cdotaccent" unicode="&#x10a;" horiz-adv-x="730" 
d="M395 -9q-155 0 -244.5 98t-89.5 264v8q0 159 95 262t241 103q117 0 197.5 -61t92.5 -173h-86q-15 83 -63.5 124t-139.5 41q-111 0 -179 -80.5t-68 -214.5v-8q0 -137 65.5 -214.5t180.5 -77.5q89 0 145.5 44.5t70.5 130.5h81q-18 -121 -97 -183.5t-202 -62.5zM395 787
q-23 0 -39 16t-16 39t16 39t39 16t39 -16t16 -39t-16 -39t-39 -16z" />
    <glyph glyph-name="cdotaccent" unicode="&#x10b;" horiz-adv-x="570" 
d="M307 -9q-112 0 -184 72.5t-72 192.5v8q0 118 73.5 193t180.5 75q90 0 153 -44.5t74 -138.5h-82q-18 114 -145 114q-73 0 -120.5 -54.5t-47.5 -144.5v-8q0 -94 46.5 -145t124.5 -51q59 0 101.5 33.5t48.5 94.5h77q-8 -86 -71.5 -141.5t-156.5 -55.5zM304 632q-23 0 -39 16
t-16 39t16 39t39 16t39 -16t16 -39t-16 -39t-39 -16z" />
    <glyph glyph-name="Ccaron" unicode="&#x10c;" horiz-adv-x="730" 
d="M395 -9q-155 0 -244.5 98t-89.5 264v8q0 159 95 262t241 103q117 0 197.5 -61t92.5 -173h-86q-15 83 -63.5 124t-139.5 41q-111 0 -179 -80.5t-68 -214.5v-8q0 -137 65.5 -214.5t180.5 -77.5q89 0 145.5 44.5t70.5 130.5h81q-18 -121 -97 -183.5t-202 -62.5zM254 898h61
l85 -58l85 58h59l-108 -127h-75z" />
    <glyph glyph-name="ccaron" unicode="&#x10d;" horiz-adv-x="570" 
d="M307 -9q-112 0 -184 72.5t-72 192.5v8q0 118 73.5 193t180.5 75q90 0 153 -44.5t74 -138.5h-82q-18 114 -145 114q-73 0 -120.5 -54.5t-47.5 -144.5v-8q0 -94 46.5 -145t124.5 -51q59 0 101.5 33.5t48.5 94.5h77q-8 -86 -71.5 -141.5t-156.5 -55.5zM159 757h61l85 -75
l85 75h59l-108 -144h-75z" />
    <glyph glyph-name="Dcaron" unicode="&#x10e;" horiz-adv-x="696" 
d="M281 71q135 0 205.5 75.5t70.5 209.5v8q0 131 -67.5 206t-209.5 75h-97v-574h98zM96 715h189q177 0 269.5 -97t92.5 -254v-9q0 -157 -92 -256t-272 -99h-187v715zM177 898h61l85 -58l85 58h59l-108 -127h-75z" />
    <glyph glyph-name="dcaron" unicode="&#x10f;" horiz-adv-x="627" 
d="M287 -9q-105 0 -170.5 69.5t-65.5 190.5v8q0 120 68 196.5t176 76.5q114 0 171 -93v334h83v-773h-83v90q-23 -40 -74 -69.5t-105 -29.5zM296 60q77 0 125 50.5t48 147.5v8q0 99 -43.5 148t-122.5 49q-78 0 -122 -52t-44 -148v-8q0 -95 44.5 -145t114.5 -50zM609 773h94
l-48 -175h-58z" />
    <glyph glyph-name="Dcroat" unicode="&#x110;" horiz-adv-x="716" 
d="M34 392h76v323h189q177 0 269.5 -97t92.5 -254v-9q0 -157 -92 -256t-272 -99h-187v325h-76v67zM295 71q135 0 205.5 75.5t70.5 209.5v8q0 131 -67.5 206t-209.5 75h-97v-253h207v-67h-207v-254h98z" />
    <glyph glyph-name="dcroat" unicode="&#x111;" horiz-adv-x="627" 
d="M282 676h178v97h83v-97h75v-61h-75v-615h-83v90q-23 -40 -74 -69.5t-105 -29.5q-105 0 -170.5 69.5t-65.5 190.5v8q0 120 68 196.5t176 76.5q114 0 171 -93v176h-178v61zM290 60q77 0 125 50.5t48 147.5v8q0 99 -43.5 148t-122.5 49q-78 0 -122 -52t-44 -148v-8
q0 -95 44.5 -145t114.5 -50z" />
    <glyph glyph-name="Emacron" unicode="&#x112;" horiz-adv-x="566" 
d="M96 715h417v-71h-330v-243h266v-71h-266v-259h348v-71h-435v715zM179 850h266v-64h-266v64z" />
    <glyph glyph-name="emacron" unicode="&#x113;" horiz-adv-x="568" 
d="M304 -9q-112 0 -182.5 73t-70.5 192v8q0 118 68.5 193t176.5 75q100 0 167.5 -64.5t67.5 -195.5v-27h-394q6 -185 168 -185q123 0 139 91h83q-14 -78 -73 -119t-150 -41zM446 312q-11 151 -150 151q-63 0 -104 -40t-52 -111h306zM165 712h262v-64h-262v64z" />
    <glyph glyph-name="Ebreve" unicode="&#x114;" horiz-adv-x="566" 
d="M96 715h417v-71h-330v-243h266v-71h-266v-259h348v-71h-435v715zM317 767q-54 0 -92 37.5t-40 94.5h66q11 -64 66 -64q59 0 72 64h64q-4 -57 -42.5 -94.5t-93.5 -37.5z" />
    <glyph glyph-name="ebreve" unicode="&#x115;" horiz-adv-x="568" 
d="M304 -9q-112 0 -182.5 73t-70.5 192v8q0 118 68.5 193t176.5 75q100 0 167.5 -64.5t67.5 -195.5v-27h-394q6 -185 168 -185q123 0 139 91h83q-14 -78 -73 -119t-150 -41zM446 312q-11 151 -150 151q-63 0 -104 -40t-52 -111h306zM286 619q-54 0 -92 37.5t-40 94.5h66
q11 -64 66 -64q59 0 72 64h64q-4 -57 -42.5 -94.5t-93.5 -37.5z" />
    <glyph glyph-name="Edotaccent" unicode="&#x116;" horiz-adv-x="566" 
d="M96 715h417v-71h-330v-243h266v-71h-266v-259h348v-71h-435v715zM312 787q-23 0 -39 16t-16 39t16 39t39 16t39 -16t16 -39t-16 -39t-39 -16z" />
    <glyph glyph-name="edotaccent" unicode="&#x117;" horiz-adv-x="568" 
d="M304 -9q-112 0 -182.5 73t-70.5 192v8q0 118 68.5 193t176.5 75q100 0 167.5 -64.5t67.5 -195.5v-27h-394q6 -185 168 -185q123 0 139 91h83q-14 -78 -73 -119t-150 -41zM446 312q-11 151 -150 151q-63 0 -104 -40t-52 -111h306zM296 632q-23 0 -39 16t-16 39t16 39
t39 16t39 -16t16 -39t-16 -39t-39 -16z" />
    <glyph glyph-name="Eogonek" unicode="&#x118;" horiz-adv-x="566" 
d="M454 -182q-48 0 -76 21t-28 59q0 31 22 58t56 44h-338v715h417v-71h-330v-243h266v-71h-266v-259h348v-71h-28q-68 -47 -68 -86q0 -36 38 -36q31 0 52 11v-59q-29 -12 -65 -12z" />
    <glyph glyph-name="eogonek" unicode="&#x119;" horiz-adv-x="568" 
d="M388 -182q-48 0 -76 21t-28 59q0 29 19 55t50 42q-25 -4 -55 -4q-112 0 -182.5 73t-70.5 192v8q0 118 68.5 193t176.5 75q100 0 167.5 -64.5t67.5 -195.5v-27h-394q6 -185 168 -185q123 0 139 91h83q-6 -37 -25.5 -69t-31 -42.5t-34.5 -28.5q-67 -57 -67 -97
q0 -36 38 -36q31 0 52 11v-59q-29 -12 -65 -12zM440 312q-11 151 -150 151q-63 0 -104 -40t-52 -111h306z" />
    <glyph glyph-name="Ecaron" unicode="&#x11a;" horiz-adv-x="566" 
d="M96 715h417v-71h-330v-243h266v-71h-266v-259h348v-71h-435v715zM171 898h61l85 -58l85 58h59l-108 -127h-75z" />
    <glyph glyph-name="ecaron" unicode="&#x11b;" horiz-adv-x="568" 
d="M304 -9q-112 0 -182.5 73t-70.5 192v8q0 118 68.5 193t176.5 75q100 0 167.5 -64.5t67.5 -195.5v-27h-394q6 -185 168 -185q123 0 139 91h83q-14 -78 -73 -119t-150 -41zM446 312q-11 151 -150 151q-63 0 -104 -40t-52 -111h306zM151 757h61l85 -75l85 75h59l-108 -144
h-75z" />
    <glyph glyph-name="Gcircumflex" unicode="&#x11c;" horiz-adv-x="767" 
d="M407 -9q-161 0 -253.5 100.5t-92.5 261.5v8q0 158 96.5 261.5t249.5 103.5q114 0 195 -56.5t96 -170.5h-87q-28 158 -202 158q-122 0 -190 -80.5t-68 -214.5v-8q0 -136 66 -214.5t190 -78.5q111 0 167 63t58 165h-209v72h294v-53q0 -152 -84.5 -234.5t-225.5 -82.5z
M364 898h75l107 -127h-61l-85 58l-85 -58h-59z" />
    <glyph glyph-name="gcircumflex" unicode="&#x11d;" horiz-adv-x="627" 
d="M299 -191q-110 0 -168 44.5t-69 116.5h85q18 -91 151 -91q80 0 124 39.5t44 121.5v76q-23 -40 -73 -69.5t-104 -29.5q-103 0 -170.5 70t-67.5 178v7q0 109 69 184.5t175 75.5q114 0 171 -93v84h83v-488q0 -110 -68.5 -168t-181.5 -58zM298 86q75 0 123 49.5t48 135.5v7
q0 87 -44 136t-122 49q-77 0 -121.5 -52t-44.5 -135v-8q0 -83 46.5 -132.5t114.5 -49.5zM263 757h75l107 -144h-61l-85 75l-85 -75h-59z" />
    <glyph glyph-name="Gbreve" unicode="&#x11e;" horiz-adv-x="767" 
d="M407 -9q-161 0 -253.5 100.5t-92.5 261.5v8q0 158 96.5 261.5t249.5 103.5q114 0 195 -56.5t96 -170.5h-87q-28 158 -202 158q-122 0 -190 -80.5t-68 -214.5v-8q0 -136 66 -214.5t190 -78.5q111 0 167 63t58 165h-209v72h294v-53q0 -152 -84.5 -234.5t-225.5 -82.5z
M399 767q-54 0 -92 37.5t-40 94.5h66q11 -64 66 -64q59 0 72 64h64q-4 -57 -42.5 -94.5t-93.5 -37.5z" />
    <glyph glyph-name="gbreve" unicode="&#x11f;" horiz-adv-x="627" 
d="M299 -191q-110 0 -168 44.5t-69 116.5h85q18 -91 151 -91q80 0 124 39.5t44 121.5v76q-23 -40 -73 -69.5t-104 -29.5q-103 0 -170.5 70t-67.5 178v7q0 109 69 184.5t175 75.5q114 0 171 -93v84h83v-488q0 -110 -68.5 -168t-181.5 -58zM298 86q75 0 123 49.5t48 135.5v7
q0 87 -44 136t-122 49q-77 0 -121.5 -52t-44.5 -135v-8q0 -83 46.5 -132.5t114.5 -49.5zM298 619q-54 0 -92 37.5t-40 94.5h66q11 -64 66 -64q59 0 72 64h64q-4 -57 -42.5 -94.5t-93.5 -37.5z" />
    <glyph glyph-name="Gdotaccent" unicode="&#x120;" horiz-adv-x="767" 
d="M407 -9q-161 0 -253.5 100.5t-92.5 261.5v8q0 158 96.5 261.5t249.5 103.5q114 0 195 -56.5t96 -170.5h-87q-28 158 -202 158q-122 0 -190 -80.5t-68 -214.5v-8q0 -136 66 -214.5t190 -78.5q111 0 167 63t58 165h-209v72h294v-53q0 -152 -84.5 -234.5t-225.5 -82.5z
M401 787q-23 0 -39 16t-16 39t16 39t39 16t39 -16t16 -39t-16 -39t-39 -16z" />
    <glyph glyph-name="gdotaccent" unicode="&#x121;" horiz-adv-x="627" 
d="M299 -191q-110 0 -168 44.5t-69 116.5h85q18 -91 151 -91q80 0 124 39.5t44 121.5v76q-23 -40 -73 -69.5t-104 -29.5q-103 0 -170.5 70t-67.5 178v7q0 109 69 184.5t175 75.5q114 0 171 -93v84h83v-488q0 -110 -68.5 -168t-181.5 -58zM298 86q75 0 123 49.5t48 135.5v7
q0 87 -44 136t-122 49q-77 0 -121.5 -52t-44.5 -135v-8q0 -83 46.5 -132.5t114.5 -49.5zM300 632q-23 0 -39 16t-16 39t16 39t39 16t39 -16t16 -39t-16 -39t-39 -16z" />
    <glyph glyph-name="uni0122" unicode="&#x122;" horiz-adv-x="767" 
d="M407 -9q-161 0 -253.5 100.5t-92.5 261.5v8q0 158 96.5 261.5t249.5 103.5q114 0 195 -56.5t96 -170.5h-87q-28 158 -202 158q-122 0 -190 -80.5t-68 -214.5v-8q0 -136 66 -214.5t190 -78.5q111 0 167 63t58 165h-209v72h294v-53q0 -152 -84.5 -234.5t-225.5 -82.5z
M317 -194l58 157l80 -24l-87 -159z" />
    <glyph glyph-name="uni0123" unicode="&#x123;" horiz-adv-x="627" 
d="M299 -191q-110 0 -168 44.5t-69 116.5h85q18 -91 151 -91q80 0 124 39.5t44 121.5v76q-23 -40 -73 -69.5t-104 -29.5q-103 0 -170.5 70t-67.5 178v7q0 109 69 184.5t175 75.5q114 0 171 -93v84h83v-488q0 -110 -68.5 -168t-181.5 -58zM298 86q75 0 123 49.5t48 135.5v7
q0 87 -44 136t-122 49q-77 0 -121.5 -52t-44.5 -135v-8q0 -83 46.5 -132.5t114.5 -49.5zM260 626l87 159l51 -26l-58 -157z" />
    <glyph glyph-name="Hcircumflex" unicode="&#x124;" horiz-adv-x="730" 
d="M96 715h87v-324h376v324h87v-715h-87v318h-376v-318h-87v715zM334 898h75l107 -127h-61l-85 58l-85 -58h-59z" />
    <glyph glyph-name="hcircumflex" unicode="&#x125;" horiz-adv-x="598" 
d="M90 773h83v-333q20 40 63 66t105 26q86 0 135 -51t49 -160v-321h-83v327q0 69 -30 101t-93 32q-61 0 -103.5 -38t-42.5 -105v-317h-83v773zM282 948h75l107 -127h-61l-85 58l-85 -58h-59z" />
    <glyph glyph-name="Hbar" unicode="&#x126;" horiz-adv-x="730" 
d="M20 560h70v155h87v-155h376v155h87v-155h70v-67h-70v-493h-87v318h-376v-318h-87v493h-70v67zM553 391v102h-376v-102h376z" />
    <glyph glyph-name="hbar" unicode="&#x127;" horiz-adv-x="598" 
d="M9 676h75v97h83v-97h178v-61h-178v-175q20 40 63 66t105 26q86 0 135 -51t49 -160v-321h-83v327q0 69 -30 101t-93 32q-61 0 -103.5 -38t-42.5 -105v-317h-83v615h-75v61z" />
    <glyph glyph-name="Itilde" unicode="&#x128;" horiz-adv-x="277" 
d="M101 715h87v-715h-87v715zM200 774q-23 0 -59 21.5t-49 21.5q-14 0 -25 -12.5t-15 -32.5h-60q6 53 34 84.5t67 31.5q23 0 58.5 -21.5t48.5 -21.5q14 0 25 12.5t15 32.5h60q-6 -53 -33.5 -84.5t-66.5 -31.5z" />
    <glyph glyph-name="itilde" unicode="&#x129;" horiz-adv-x="255" 
d="M92 523h83v-523h-83v523zM188 619q-23 0 -59 21.5t-49 21.5q-14 0 -25 -12.5t-15 -32.5h-60q6 53 34 84.5t67 31.5q23 0 58.5 -21.5t48.5 -21.5q14 0 25 12.5t15 32.5h60q-6 -53 -33.5 -84.5t-66.5 -31.5z" />
    <glyph glyph-name="Imacron" unicode="&#x12a;" horiz-adv-x="277" 
d="M101 715h87v-715h-87v715zM11 850h266v-64h-266v64z" />
    <glyph glyph-name="imacron" unicode="&#x12b;" horiz-adv-x="255" 
d="M30 712h194v-64h-194v64zM86 523h83v-523h-83v523z" />
    <glyph glyph-name="Ibreve" unicode="&#x12c;" horiz-adv-x="277" 
d="M101 715h87v-715h-87v715zM144 767q-54 0 -92 37.5t-40 94.5h66q11 -64 66 -64q59 0 72 64h64q-4 -57 -42.5 -94.5t-93.5 -37.5z" />
    <glyph glyph-name="ibreve" unicode="&#x12d;" horiz-adv-x="255" 
d="M92 523h83v-523h-83v523zM132 619q-54 0 -92 37.5t-40 94.5h66q11 -64 66 -64q59 0 72 64h64q-4 -57 -42.5 -94.5t-93.5 -37.5z" />
    <glyph glyph-name="Iogonek" unicode="&#x12e;" horiz-adv-x="277" 
d="M130 -182q-48 0 -76 21t-28 59q0 57 69 98v719h87v-711q-77 -43 -77 -90q0 -36 38 -36q31 0 52 11v-59q-29 -12 -65 -12z" />
    <glyph glyph-name="iogonek" unicode="&#x12f;" horiz-adv-x="255" 
d="M120 -182q-48 0 -76 21t-28 59q0 61 70 98v527h83v-520q-74 -45 -74 -89q0 -36 38 -36q31 0 52 11v-59q-29 -12 -65 -12zM126 632q-23 0 -39 16t-16 39t16 39t39 16t39 -16t16 -39t-16 -39t-39 -16z" />
    <glyph glyph-name="Idotaccent" unicode="&#x130;" horiz-adv-x="277" 
d="M101 715h87v-715h-87v715zM144 787q-23 0 -39 16t-16 39t16 39t39 16t39 -16t16 -39t-16 -39t-39 -16z" />
    <glyph glyph-name="dotlessi" unicode="&#x131;" horiz-adv-x="267" 
d="M92 523h83v-523h-83v523z" />
    <glyph glyph-name="IJ" unicode="&#x132;" horiz-adv-x="657" 
d="M101 715h87v-715h-87v715zM381 -9q-67 0 -100 19v72q49 -20 95 -20q116 0 116 136v517h87v-521q0 -102 -55 -152.5t-143 -50.5z" />
    <glyph glyph-name="ij" unicode="&#x133;" horiz-adv-x="255" 
d="M92 523h83v-523h-83v523zM132 632q-23 0 -39 16t-16 39t16 39t39 16t39 -16t16 -39t-16 -39t-39 -16zM270 -121q43 4 60 23.5t17 57.5v563h83v-556q0 -77 -37.5 -116t-122.5 -42v70zM387 632q-23 0 -39 16t-16 39t16 39t39 16t39 -16t16 -39t-16 -39t-39 -16z" />
    <glyph glyph-name="Jcircumflex" unicode="&#x134;" horiz-adv-x="420" 
d="M144 -9q-67 0 -100 19v72q49 -20 95 -20q116 0 116 136v517h87v-521q0 -102 -55 -152.5t-143 -50.5zM259 898h75l107 -127h-61l-85 58l-85 -58h-59z" />
    <glyph glyph-name="jcircumflex" unicode="&#x135;" horiz-adv-x="255" 
d="M9 -121q43 4 60 23.5t17 57.5v563h83v-556q0 -77 -37.5 -116t-122.5 -42v70zM95 757h75l107 -144h-61l-85 75l-85 -75h-59z" />
    <glyph glyph-name="uni0136" unicode="&#x136;" horiz-adv-x="616" 
d="M96 715h87v-344l311 345h97l-318 -348l334 -368h-105l-319 349v-349h-87v715zM244 -194l58 157l80 -24l-87 -159z" />
    <glyph glyph-name="uni0137" unicode="&#x137;" horiz-adv-x="516" 
d="M90 773h83v-491l217 241h97l-224 -243l243 -280h-101l-232 271v-271h-83v773zM192 -194l58 157l80 -24l-87 -159z" />
    <glyph glyph-name="Lacute" unicode="&#x139;" horiz-adv-x="535" 
d="M96 715h87v-644h327v-71h-414v715zM160 898h104l-98 -127h-62z" />
    <glyph glyph-name="lacute" unicode="&#x13a;" horiz-adv-x="256" 
d="M92 773h84v-773h-84v773zM154 948h104l-98 -127h-62z" />
    <glyph glyph-name="uni013B" unicode="&#x13b;" horiz-adv-x="535" 
d="M96 715h87v-644h327v-71h-414v715zM220 -194l58 157l80 -24l-87 -159z" />
    <glyph glyph-name="uni013C" unicode="&#x13c;" horiz-adv-x="256" 
d="M92 773h84v-773h-84v773zM50 -194l58 157l80 -24l-87 -159z" />
    <glyph glyph-name="Lcaron" unicode="&#x13d;" horiz-adv-x="535" 
d="M315 715h94l-58 -157h-58zM90 715h87v-644h327v-71h-414v715z" />
    <glyph glyph-name="lcaron" unicode="&#x13e;" horiz-adv-x="256" 
d="M92 773h84v-773h-84v773zM236 773h94l-48 -175h-58z" />
    <glyph glyph-name="Ldot" unicode="&#x13f;" horiz-adv-x="535" 
d="M96 715h87v-644h327v-71h-414v715zM406 320q-26 0 -45 18.5t-19 45.5t19 45.5t45 18.5t45 -18.5t19 -45.5t-19 -45.5t-45 -18.5z" />
    <glyph glyph-name="ldot" unicode="&#x140;" horiz-adv-x="328" 
d="M92 773h84v-773h-84v773zM296 303q-26 0 -45 18.5t-19 45.5t19 45.5t45 18.5t45 -18.5t19 -45.5t-19 -45.5t-45 -18.5z" />
    <glyph glyph-name="Lslash" unicode="&#x141;" horiz-adv-x="567" 
d="M48 319l68 25v371h87v-339l199 73v-68l-199 -73v-237h327v-71h-414v276l-68 -25v68z" />
    <glyph glyph-name="lslash" unicode="&#x142;" horiz-adv-x="288" 
d="M26 381l76 43v349h84v-301l80 46v-70l-80 -46v-402h-84v354l-76 -43v70z" />
    <glyph glyph-name="Nacute" unicode="&#x143;" horiz-adv-x="724" 
d="M96 715h113l348 -591v591h83v-715h-100l-361 613v-613h-83v715zM397 898h104l-98 -127h-62z" />
    <glyph glyph-name="nacute" unicode="&#x144;" horiz-adv-x="598" 
d="M90 523h83v-83q20 40 63 66t105 26q86 0 135 -51t49 -160v-321h-83v327q0 69 -30 101t-93 32q-61 0 -103.5 -38t-42.5 -105v-317h-83v523zM329 760h104l-104 -147h-62z" />
    <glyph glyph-name="uni0145" unicode="&#x145;" horiz-adv-x="724" 
d="M96 715h113l348 -591v591h83v-715h-100l-361 613v-613h-83v715zM272 -194l58 157l80 -24l-87 -159z" />
    <glyph glyph-name="uni0146" unicode="&#x146;" horiz-adv-x="598" 
d="M90 523h83v-83q20 40 63 66t105 26q86 0 135 -51t49 -160v-321h-83v327q0 69 -30 101t-93 32q-61 0 -103.5 -38t-42.5 -105v-317h-83v523zM220 -194l58 157l80 -24l-87 -159z" />
    <glyph glyph-name="Ncaron" unicode="&#x147;" horiz-adv-x="724" 
d="M96 715h113l348 -591v591h83v-715h-100l-361 613v-613h-83v715zM233 898h61l85 -58l85 58h59l-108 -127h-75z" />
    <glyph glyph-name="ncaron" unicode="&#x148;" horiz-adv-x="598" 
d="M90 523h83v-83q20 40 63 66t105 26q86 0 135 -51t49 -160v-321h-83v327q0 69 -30 101t-93 32q-61 0 -103.5 -38t-42.5 -105v-317h-83v523zM159 757h61l85 -75l85 75h59l-108 -144h-75z" />
    <glyph glyph-name="napostrophe" unicode="&#x149;" horiz-adv-x="598" 
d="M90 523h83v-83q20 40 63 66t105 26q86 0 135 -51t49 -160v-321h-83v327q0 69 -30 101t-93 32q-61 0 -103.5 -38t-42.5 -105v-317h-83v523zM-38 514l89 212l79 -36l-117 -202z" />
    <glyph glyph-name="Eng" unicode="&#x14a;" horiz-adv-x="724" 
d="M436 -193q-67 0 -100 19v72q49 -20 95 -20q114 0 118 121l-376 614v-613h-83v715h113l348 -568v568h83v-705q0 -102 -55 -152.5t-143 -50.5z" />
    <glyph glyph-name="eng" unicode="&#x14b;" horiz-adv-x="598" 
d="M359 -121q43 4 60 23.5t17 57.5v367q0 69 -30 101t-93 32q-61 0 -103.5 -38t-42.5 -105v-317h-83v523h83v-83q20 40 63 66t105 26q86 0 135 -51t49 -160v-354q0 -77 -37.5 -116t-122.5 -42v70z" />
    <glyph glyph-name="Omacron" unicode="&#x14c;" horiz-adv-x="811" 
d="M415 63q118 0 187.5 81t69.5 212v8q0 124 -70 207t-189 83q-122 0 -192 -80.5t-70 -211.5v-8q0 -128 75.5 -209.5t188.5 -81.5zM415 -9q-156 0 -255 104.5t-99 257.5v8q0 155 98.5 259t253.5 104t252 -103.5t97 -257.5v-8q0 -154 -97 -259t-250 -105zM278 850h266v-64
h-266v64z" />
    <glyph glyph-name="omacron" unicode="&#x14d;" horiz-adv-x="604" 
d="M308 60q78 0 124.5 54t46.5 143v7q0 91 -46.5 145t-124.5 54q-79 0 -125 -54t-46 -144v-8q0 -91 45.5 -144t125.5 -53zM307 -9q-111 0 -183.5 75.5t-72.5 190.5v8q0 117 72.5 192t184.5 75t184.5 -74.5t72.5 -191.5v-8q0 -118 -73 -192.5t-185 -74.5zM177 712h262v-64
h-262v64z" />
    <glyph glyph-name="Obreve" unicode="&#x14e;" horiz-adv-x="811" 
d="M415 63q118 0 187.5 81t69.5 212v8q0 124 -70 207t-189 83q-122 0 -192 -80.5t-70 -211.5v-8q0 -128 75.5 -209.5t188.5 -81.5zM415 -9q-156 0 -255 104.5t-99 257.5v8q0 155 98.5 259t253.5 104t252 -103.5t97 -257.5v-8q0 -154 -97 -259t-250 -105zM409 767
q-54 0 -92 37.5t-40 94.5h66q11 -64 66 -64q59 0 72 64h64q-4 -57 -42.5 -94.5t-93.5 -37.5z" />
    <glyph glyph-name="obreve" unicode="&#x14f;" horiz-adv-x="604" 
d="M308 60q78 0 124.5 54t46.5 143v7q0 91 -46.5 145t-124.5 54q-79 0 -125 -54t-46 -144v-8q0 -91 45.5 -144t125.5 -53zM307 -9q-111 0 -183.5 75.5t-72.5 190.5v8q0 117 72.5 192t184.5 75t184.5 -74.5t72.5 -191.5v-8q0 -118 -73 -192.5t-185 -74.5zM306 619
q-54 0 -92 37.5t-40 94.5h66q11 -64 66 -64q59 0 72 64h64q-4 -57 -42.5 -94.5t-93.5 -37.5z" />
    <glyph glyph-name="Ohungarumlaut" unicode="&#x150;" horiz-adv-x="811" 
d="M415 63q118 0 187.5 81t69.5 212v8q0 124 -70 207t-189 83q-122 0 -192 -80.5t-70 -211.5v-8q0 -128 75.5 -209.5t188.5 -81.5zM415 -9q-156 0 -255 104.5t-99 257.5v8q0 155 98.5 259t253.5 104t252 -103.5t97 -257.5v-8q0 -154 -97 -259t-250 -105zM336 898h95
l-72 -127h-60zM490 898h95l-72 -127h-60z" />
    <glyph glyph-name="ohungarumlaut" unicode="&#x151;" horiz-adv-x="604" 
d="M308 60q78 0 124.5 54t46.5 143v7q0 91 -46.5 145t-124.5 54q-79 0 -125 -54t-46 -144v-8q0 -91 45.5 -144t125.5 -53zM307 -9q-111 0 -183.5 75.5t-72.5 190.5v8q0 117 72.5 192t184.5 75t184.5 -74.5t72.5 -191.5v-8q0 -118 -73 -192.5t-185 -74.5zM236 760h95
l-75 -147h-60zM390 760h95l-75 -147h-60z" />
    <glyph glyph-name="OE" unicode="&#x152;" horiz-adv-x="967" 
d="M61 360q0 157 92 256t272 99h477v-71h-314v-243h250v-71h-250v-259h332v-71h-497q-177 0 -269.5 97t-92.5 254v9zM427 644q-136 0 -206 -75.5t-70 -209.5v-8q0 -131 67.5 -206t209.5 -75h73v574h-74z" />
    <glyph glyph-name="oe" unicode="&#x153;" horiz-adv-x="1007" 
d="M307 -9q-111 0 -183.5 75.5t-72.5 190.5v8q0 117 72.5 192t184.5 75q73 0 127.5 -33t84.5 -93q59 126 203 126q100 0 167.5 -64.5t67.5 -195.5v-27h-394q6 -185 168 -185q123 0 139 91h83q-14 -78 -73 -119t-150 -41q-150 0 -211 125q-63 -125 -213 -125zM308 60
q78 0 124.5 54t46.5 143v7q0 91 -46.5 145t-124.5 54q-79 0 -125 -54t-46 -144v-8q0 -91 45.5 -144t125.5 -53zM873 312q-11 151 -150 151q-63 0 -104 -40t-52 -111h306z" />
    <glyph glyph-name="Racute" unicode="&#x154;" horiz-adv-x="628" 
d="M96 715h215q111 0 180.5 -49t69.5 -150v-4q0 -83 -49 -131.5t-128 -63.5l219 -317h-97l-213 311h-110v-311h-87v715zM317 380q157 0 157 132v4q0 70 -40 99.5t-117 29.5h-134v-265h134zM335 898h104l-98 -127h-62z" />
    <glyph glyph-name="racute" unicode="&#x155;" horiz-adv-x="376" 
d="M90 523h83v-94q26 48 66 74.5t106 28.5v-78q-86 -4 -129 -40t-43 -127v-287h-83v523zM236 760h104l-104 -147h-62z" />
    <glyph glyph-name="uni0156" unicode="&#x156;" horiz-adv-x="628" 
d="M96 715h215q111 0 180.5 -49t69.5 -150v-4q0 -83 -49 -131.5t-128 -63.5l219 -317h-97l-213 311h-110v-311h-87v715zM317 380q157 0 157 132v4q0 70 -40 99.5t-117 29.5h-134v-265h134zM232 -194l58 157l80 -24l-87 -159z" />
    <glyph glyph-name="uni0157" unicode="&#x157;" horiz-adv-x="376" 
d="M90 523h83v-94q26 48 66 74.5t106 28.5v-78q-86 -4 -129 -40t-43 -127v-287h-83v523zM45 -194l58 157l80 -24l-87 -159z" />
    <glyph glyph-name="Rcaron" unicode="&#x158;" horiz-adv-x="628" 
d="M96 715h215q111 0 180.5 -49t69.5 -150v-4q0 -83 -49 -131.5t-128 -63.5l219 -317h-97l-213 311h-110v-311h-87v715zM317 380q157 0 157 132v4q0 70 -40 99.5t-117 29.5h-134v-265h134zM171 898h61l85 -58l85 58h59l-108 -127h-75z" />
    <glyph glyph-name="rcaron" unicode="&#x159;" horiz-adv-x="376" 
d="M90 523h83v-94q26 48 66 74.5t106 28.5v-78q-86 -4 -129 -40t-43 -127v-287h-83v523zM66 757h61l85 -75l85 75h59l-108 -144h-75z" />
    <glyph glyph-name="Sacute" unicode="&#x15a;" horiz-adv-x="627" 
d="M327 -9q-133 0 -197.5 62.5t-75.5 164.5h84q5 -35 14.5 -61t30 -49t56.5 -35t88 -12q70 0 116.5 37.5t46.5 97.5q0 62 -36.5 92t-136.5 45q-121 19 -180 62.5t-59 134.5q0 83 65 138.5t165 55.5q108 0 171.5 -50.5t74.5 -146.5h-78q-13 68 -52.5 97.5t-115.5 29.5
q-72 0 -110.5 -31.5t-38.5 -84.5q0 -56 34 -84.5t138 -43.5q126 -19 184.5 -65.5t58.5 -142.5q0 -90 -70.5 -150.5t-176.5 -60.5zM327 898h104l-98 -127h-62z" />
    <glyph glyph-name="sacute" unicode="&#x15b;" horiz-adv-x="480" 
d="M252 -9q-94 0 -147.5 44.5t-57.5 125.5h81q6 -50 34.5 -75.5t88.5 -25.5q59 0 86.5 20.5t27.5 62.5q0 39 -28.5 57.5t-93.5 30.5q-102 18 -142 52t-40 102t54.5 107.5t122.5 39.5q77 0 128.5 -36t60.5 -115h-80q-9 43 -34.5 62.5t-75.5 19.5q-45 0 -72 -20.5t-27 -54.5
q0 -35 25.5 -53t96.5 -30q39 -8 61.5 -14t49 -17.5t40.5 -27t23.5 -39.5t9.5 -57q0 -74 -49 -116.5t-143 -42.5zM269 760h104l-104 -147h-62z" />
    <glyph glyph-name="Scircumflex" unicode="&#x15c;" horiz-adv-x="627" 
d="M327 -9q-133 0 -197.5 62.5t-75.5 164.5h84q5 -35 14.5 -61t30 -49t56.5 -35t88 -12q70 0 116.5 37.5t46.5 97.5q0 62 -36.5 92t-136.5 45q-121 19 -180 62.5t-59 134.5q0 83 65 138.5t165 55.5q108 0 171.5 -50.5t74.5 -146.5h-78q-13 68 -52.5 97.5t-115.5 29.5
q-72 0 -110.5 -31.5t-38.5 -84.5q0 -56 34 -84.5t138 -43.5q126 -19 184.5 -65.5t58.5 -142.5q0 -90 -70.5 -150.5t-176.5 -60.5zM271 898h75l107 -127h-61l-85 58l-85 -58h-59z" />
    <glyph glyph-name="scircumflex" unicode="&#x15d;" horiz-adv-x="480" 
d="M252 -9q-94 0 -147.5 44.5t-57.5 125.5h81q6 -50 34.5 -75.5t88.5 -25.5q59 0 86.5 20.5t27.5 62.5q0 39 -28.5 57.5t-93.5 30.5q-102 18 -142 52t-40 102t54.5 107.5t122.5 39.5q77 0 128.5 -36t60.5 -115h-80q-9 43 -34.5 62.5t-75.5 19.5q-45 0 -72 -20.5t-27 -54.5
q0 -35 25.5 -53t96.5 -30q39 -8 61.5 -14t49 -17.5t40.5 -27t23.5 -39.5t9.5 -57q0 -74 -49 -116.5t-143 -42.5zM207 757h75l107 -144h-61l-85 75l-85 -75h-59z" />
    <glyph glyph-name="uni015E" unicode="&#x15e;" horiz-adv-x="627" 
d="M290 -214q-44 0 -70.5 22.5t-29.5 61.5h54q8 -36 43 -36q18 0 29 10t11 26t-10 25t-26 9q-15 0 -28 -8l-32 28l38 70q-106 11 -159.5 72t-61.5 152h84q5 -35 14.5 -61t30 -49t56.5 -35t88 -12q70 0 116.5 37.5t46.5 97.5q0 62 -36.5 92t-136.5 45q-121 19 -180 62.5
t-59 134.5q0 83 65 138.5t165 55.5q108 0 171.5 -50.5t74.5 -146.5h-78q-13 68 -52.5 97.5t-115.5 29.5q-72 0 -110.5 -31.5t-38.5 -84.5q0 -56 34 -84.5t138 -43.5q126 -19 184.5 -65.5t58.5 -142.5q0 -90 -70.5 -150.5t-176.5 -60.5l-24 -44q38 4 66 -16.5t28 -64.5
q0 -38 -29 -59t-72 -21z" />
    <glyph glyph-name="uni015F" unicode="&#x15f;" horiz-adv-x="480" 
d="M227 -214q-44 0 -70.5 22.5t-29.5 61.5h54q8 -36 43 -36q18 0 29 10t11 26t-10 25t-26 9q-15 0 -28 -8l-32 28l38 70q-76 8 -119 51.5t-46 115.5h81q6 -50 34.5 -75.5t88.5 -25.5q59 0 86.5 20.5t27.5 62.5q0 39 -28.5 57.5t-93.5 30.5q-102 18 -142 52t-40 102
t54.5 107.5t122.5 39.5q77 0 128.5 -36t60.5 -115h-80q-9 43 -34.5 62.5t-75.5 19.5q-45 0 -72 -20.5t-27 -54.5q0 -35 25.5 -53t96.5 -30q39 -8 61.5 -14t49 -17.5t40.5 -27t23.5 -39.5t9.5 -57q0 -71 -46 -113.5t-134 -45.5l-24 -44q38 4 66 -16.5t28 -64.5q0 -38 -29 -59
t-72 -21z" />
    <glyph glyph-name="Scaron" unicode="&#x160;" horiz-adv-x="639" 
d="M327 -9q-133 0 -197.5 62.5t-75.5 164.5h84q5 -35 14.5 -61t30 -49t56.5 -35t88 -12q70 0 116.5 37.5t46.5 97.5q0 62 -36.5 92t-136.5 45q-121 19 -180 62.5t-59 134.5q0 83 65 138.5t165 55.5q108 0 171.5 -50.5t74.5 -146.5h-78q-13 68 -52.5 97.5t-115.5 29.5
q-72 0 -110.5 -31.5t-38.5 -84.5q0 -56 34 -84.5t138 -43.5q126 -19 184.5 -65.5t58.5 -142.5q0 -90 -70.5 -150.5t-176.5 -60.5zM163 898h61l85 -58l85 58h59l-108 -127h-75z" />
    <glyph glyph-name="scaron" unicode="&#x161;" horiz-adv-x="492" 
d="M252 -9q-94 0 -147.5 44.5t-57.5 125.5h81q6 -50 34.5 -75.5t88.5 -25.5q59 0 86.5 20.5t27.5 62.5q0 39 -28.5 57.5t-93.5 30.5q-102 18 -142 52t-40 102t54.5 107.5t122.5 39.5q77 0 128.5 -36t60.5 -115h-80q-9 43 -34.5 62.5t-75.5 19.5q-45 0 -72 -20.5t-27 -54.5
q0 -35 25.5 -53t96.5 -30q39 -8 61.5 -14t49 -17.5t40.5 -27t23.5 -39.5t9.5 -57q0 -74 -49 -116.5t-143 -42.5zM99 757h61l85 -75l85 75h59l-108 -144h-75z" />
    <glyph glyph-name="Tcommaaccent" unicode="&#x162;" horiz-adv-x="561" 
d="M243 644h-208v71h503v-71h-208v-644h-87v644zM202 -194l58 157l80 -24l-87 -159z" />
    <glyph glyph-name="tcommaaccent" unicode="&#x163;" horiz-adv-x="355" 
d="M249 -7q-70 0 -105.5 37t-35.5 101v322h-75v70h75v119h83v-119h122v-70h-122v-314q0 -76 65 -76q34 0 64 11v-70q-27 -11 -71 -11zM113 -194l58 157l80 -24l-87 -159z" />
    <glyph glyph-name="Tcaron" unicode="&#x164;" horiz-adv-x="561" 
d="M243 644h-208v71h503v-71h-208v-644h-87v644zM141 898h61l85 -58l85 58h59l-108 -127h-75z" />
    <glyph glyph-name="tcaron" unicode="&#x165;" horiz-adv-x="355" 
d="M249 -7q-70 0 -105.5 37t-35.5 101v322h-75v70h75v119h83v-119h122v-70h-122v-314q0 -76 65 -76q34 0 64 11v-70q-27 -11 -71 -11zM275 773h94l-48 -175h-58z" />
    <glyph glyph-name="Tbar" unicode="&#x166;" horiz-adv-x="561" 
d="M92 404h145v240h-208v71h503v-71h-208v-240h145v-66h-145v-338h-87v338h-145v66z" />
    <glyph glyph-name="tbar" unicode="&#x167;" horiz-adv-x="355" 
d="M27 339h75v114h-75v70h75v119h83v-119h122v-70h-122v-114h122v-59h-122v-141q0 -76 65 -76q34 0 64 11v-70q-27 -11 -71 -11q-70 0 -105.5 37t-35.5 101v149h-75v59z" />
    <glyph glyph-name="Utilde" unicode="&#x168;" horiz-adv-x="696" 
d="M347 -9q-124 0 -190.5 69.5t-66.5 200.5v454h87v-444q0 -111 40.5 -159.5t131.5 -48.5q92 0 137 48t45 173v431h87v-443q0 -134 -68 -207.5t-203 -73.5zM408 774q-23 0 -59 21.5t-49 21.5q-14 0 -25 -12.5t-15 -32.5h-60q6 53 34 84.5t67 31.5q23 0 58.5 -21.5
t48.5 -21.5q14 0 25 12.5t15 32.5h60q-6 -53 -33.5 -84.5t-66.5 -31.5z" />
    <glyph glyph-name="utilde" unicode="&#x169;" horiz-adv-x="594" 
d="M267 -9q-83 0 -132.5 49t-49.5 152v331h83v-327q0 -69 29.5 -101t91.5 -32q60 0 102 38t42 105v317h83v-523h-83v83q-19 -40 -62.5 -66t-103.5 -26zM357 619q-23 0 -59 21.5t-49 21.5q-14 0 -25 -12.5t-15 -32.5h-60q6 53 34 84.5t67 31.5q23 0 58.5 -21.5t48.5 -21.5
q14 0 25 12.5t15 32.5h60q-6 -53 -33.5 -84.5t-66.5 -31.5z" />
    <glyph glyph-name="Umacron" unicode="&#x16a;" horiz-adv-x="696" 
d="M347 -9q-124 0 -190.5 69.5t-66.5 200.5v454h87v-444q0 -111 40.5 -159.5t131.5 -48.5q92 0 137 48t45 173v431h87v-443q0 -134 -68 -207.5t-203 -73.5zM221 850h266v-64h-266v64z" />
    <glyph glyph-name="umacron" unicode="&#x16b;" horiz-adv-x="594" 
d="M267 -9q-83 0 -132.5 49t-49.5 152v331h83v-327q0 -69 29.5 -101t91.5 -32q60 0 102 38t42 105v317h83v-523h-83v83q-19 -40 -62.5 -66t-103.5 -26zM172 712h262v-64h-262v64z" />
    <glyph glyph-name="Ubreve" unicode="&#x16c;" horiz-adv-x="696" 
d="M347 -9q-124 0 -190.5 69.5t-66.5 200.5v454h87v-444q0 -111 40.5 -159.5t131.5 -48.5q92 0 137 48t45 173v431h87v-443q0 -134 -68 -207.5t-203 -73.5zM352 767q-54 0 -92 37.5t-40 94.5h66q11 -64 66 -64q59 0 72 64h64q-4 -57 -42.5 -94.5t-93.5 -37.5z" />
    <glyph glyph-name="ubreve" unicode="&#x16d;" horiz-adv-x="594" 
d="M267 -9q-83 0 -132.5 49t-49.5 152v331h83v-327q0 -69 29.5 -101t91.5 -32q60 0 102 38t42 105v317h83v-523h-83v83q-19 -40 -62.5 -66t-103.5 -26zM301 619q-54 0 -92 37.5t-40 94.5h66q11 -64 66 -64q59 0 72 64h64q-4 -57 -42.5 -94.5t-93.5 -37.5z" />
    <glyph glyph-name="Uring" unicode="&#x16e;" horiz-adv-x="696" 
d="M347 -9q-124 0 -190.5 69.5t-66.5 200.5v454h87v-444q0 -111 40.5 -159.5t131.5 -48.5q92 0 137 48t45 173v431h87v-443q0 -134 -68 -207.5t-203 -73.5zM354 785q23 0 38 16.5t15 41.5t-15 41.5t-38 16.5t-38 -16.5t-15 -41.5t15 -41.5t38 -16.5zM354 739
q-44 0 -75.5 30.5t-31.5 73.5t31.5 73.5t75.5 30.5t75.5 -30.5t31.5 -73.5t-31.5 -73.5t-75.5 -30.5z" />
    <glyph glyph-name="uring" unicode="&#x16f;" horiz-adv-x="594" 
d="M267 -9q-83 0 -132.5 49t-49.5 152v331h83v-327q0 -69 29.5 -101t91.5 -32q60 0 102 38t42 105v317h83v-523h-83v83q-19 -40 -62.5 -66t-103.5 -26zM300 614q23 0 38 16.5t15 41.5t-15 41.5t-38 16.5t-38 -16.5t-15 -41.5t15 -41.5t38 -16.5zM300 568q-44 0 -75.5 30.5
t-31.5 73.5t31.5 73.5t75.5 30.5t75.5 -30.5t31.5 -73.5t-31.5 -73.5t-75.5 -30.5z" />
    <glyph glyph-name="Uhungarumlaut" unicode="&#x170;" horiz-adv-x="696" 
d="M347 -9q-124 0 -190.5 69.5t-66.5 200.5v454h87v-444q0 -111 40.5 -159.5t131.5 -48.5q92 0 137 48t45 173v431h87v-443q0 -134 -68 -207.5t-203 -73.5zM279 898h95l-72 -127h-60zM433 898h95l-72 -127h-60z" />
    <glyph glyph-name="uhungarumlaut" unicode="&#x171;" horiz-adv-x="594" 
d="M267 -9q-83 0 -132.5 49t-49.5 152v331h83v-327q0 -69 29.5 -101t91.5 -32q60 0 102 38t42 105v317h83v-523h-83v83q-19 -40 -62.5 -66t-103.5 -26zM231 760h95l-75 -147h-60zM385 760h95l-75 -147h-60z" />
    <glyph glyph-name="Uogonek" unicode="&#x172;" horiz-adv-x="696" 
d="M384 -182q-48 0 -76 21t-28 59q0 52 62 93h-1q-124 0 -190.5 69.5t-66.5 200.5v454h87v-444q0 -111 40.5 -159.5t131.5 -48.5q92 0 137 48t45 173v431h87v-443q0 -193 -133 -254q-44 -21 -63.5 -31.5t-38 -30t-18.5 -42.5q0 -36 38 -36q31 0 52 11v-59q-29 -12 -65 -12z
" />
    <glyph glyph-name="uogonek" unicode="&#x173;" horiz-adv-x="594" 
d="M459 -182q-48 0 -76 21t-28 59q0 30 20 56t52 43v86q-19 -40 -62.5 -66t-103.5 -26q-83 0 -132.5 49t-49.5 152v331h83v-327q0 -69 29.5 -101t91.5 -32q60 0 102 38t42 105v317h83v-518q-76 -48 -76 -91q0 -36 38 -36q31 0 52 11v-59q-29 -12 -65 -12z" />
    <glyph glyph-name="Wcircumflex" unicode="&#x174;" horiz-adv-x="928" 
d="M40 715h89l145 -577l168 577h62l168 -579l147 579h81l-186 -715h-80l-162 565l-167 -565h-79zM433 898h75l107 -127h-61l-85 58l-85 -58h-59z" />
    <glyph glyph-name="wcircumflex" unicode="&#x175;" horiz-adv-x="794" 
d="M34 523h90l122 -421l127 421h72l119 -421l123 421h85l-163 -523h-92l-109 392l-122 -392h-91zM366 757h75l107 -144h-61l-85 75l-85 -75h-59z" />
    <glyph glyph-name="Ycircumflex" unicode="&#x176;" horiz-adv-x="598" 
d="M268 312l-239 403h98l187 -332l180 332h87l-226 -404v-311h-87v312zM268 898h75l107 -127h-61l-85 58l-85 -58h-59z" />
    <glyph glyph-name="ycircumflex" unicode="&#x177;" horiz-adv-x="529" 
d="M236 54l-205 469h89l160 -375l145 375h85l-289 -705h-84zM233 757h75l107 -144h-61l-85 75l-85 -75h-59z" />
    <glyph glyph-name="Ydieresis" unicode="&#x178;" horiz-adv-x="610" 
d="M268 312l-239 403h98l187 -332l180 332h87l-226 -404v-311h-87v312zM203 789q-22 0 -37.5 15.5t-15.5 37.5t15.5 37.5t37.5 15.5t37.5 -15.5t15.5 -37.5t-15.5 -37.5t-37.5 -15.5zM406 789q-22 0 -37.5 15.5t-15.5 37.5t15.5 37.5t37.5 15.5t37.5 -15.5t15.5 -37.5
t-15.5 -37.5t-37.5 -15.5z" />
    <glyph glyph-name="Zacute" unicode="&#x179;" horiz-adv-x="595" 
d="M34 14l405 630h-369v71h489v-13l-394 -628h388v-74h-519v14zM320 898h104l-98 -127h-62z" />
    <glyph glyph-name="zacute" unicode="&#x17a;" horiz-adv-x="483" 
d="M27 12l309 441h-279v70h407v-15l-302 -435h298v-73h-433v12zM279 760h104l-104 -147h-62z" />
    <glyph glyph-name="Zdotaccent" unicode="&#x17b;" horiz-adv-x="595" 
d="M34 14l405 630h-369v71h489v-13l-394 -628h388v-74h-519v14zM301 787q-23 0 -39 16t-16 39t16 39t39 16t39 -16t16 -39t-16 -39t-39 -16z" />
    <glyph glyph-name="zdotaccent" unicode="&#x17c;" horiz-adv-x="483" 
d="M27 12l309 441h-279v70h407v-15l-302 -435h298v-73h-433v12zM254 632q-23 0 -39 16t-16 39t16 39t39 16t39 -16t16 -39t-16 -39t-39 -16z" />
    <glyph glyph-name="Zcaron" unicode="&#x17d;" horiz-adv-x="607" 
d="M34 14l405 630h-369v71h489v-13l-394 -628h388v-74h-519v14zM156 898h61l85 -58l85 58h59l-108 -127h-75z" />
    <glyph glyph-name="zcaron" unicode="&#x17e;" horiz-adv-x="495" 
d="M27 12l309 441h-279v70h407v-15l-302 -435h298v-73h-433v12zM109 757h61l85 -75l85 75h59l-108 -144h-75z" />
    <glyph glyph-name="uni0192" unicode="&#x192;" horiz-adv-x="409" 
d="M35 413h97l23 152q24 159 169 159q38 0 68 -11v-70q-26 12 -66 12q-75 0 -89 -94l-23 -148h132v-68h-142l-80 -527h-83l80 527h-86v68z" />
    <glyph glyph-name="Aringacute" unicode="&#x1fa;" horiz-adv-x="674" 
d="M288 715h114l242 -715h-86l-70 206h-295l-69 -206h-82zM217 275h248l-124 368zM350 795q23 0 38 16.5t15 41.5t-15 41.5t-38 16.5t-38 -16.5t-15 -41.5t15 -41.5t38 -16.5zM350 749q-44 0 -75.5 30.5t-31.5 73.5t31.5 73.5t75.5 30.5t75.5 -30.5t31.5 -73.5t-31.5 -73.5
t-75.5 -30.5zM373 1113h104l-98 -127h-62z" />
    <glyph glyph-name="aringacute" unicode="&#x1fb;" horiz-adv-x="540" 
d="M221 -9q-77 0 -125.5 38.5t-48.5 115.5q0 43 21.5 75.5t59.5 51t83 27t98 8.5h75v38q0 63 -26 90.5t-86 27.5q-108 0 -120 -94h-83q8 84 65.5 123.5t141.5 39.5q191 0 191 -187v-345h-83v66q-60 -75 -163 -75zM229 57q68 0 111.5 33.5t43.5 92.5v65h-72q-182 0 -182 -103
q0 -88 99 -88zM279 624q23 0 38 16.5t15 41.5t-15 41.5t-38 16.5t-38 -16.5t-15 -41.5t15 -41.5t38 -16.5zM279 578q-44 0 -75.5 30.5t-31.5 73.5t31.5 73.5t75.5 30.5t75.5 -30.5t31.5 -73.5t-31.5 -73.5t-75.5 -30.5zM309 956h104l-98 -127h-62z" />
    <glyph glyph-name="AEacute" unicode="&#x1fc;" horiz-adv-x="950" 
d="M405 715h492v-71h-330v-243h266v-71h-266v-259h348v-71h-435v207h-252l-105 -207h-88zM262 275h218v369h-31zM635 898h104l-98 -127h-62z" />
    <glyph glyph-name="aeacute" unicode="&#x1fd;" horiz-adv-x="880" 
d="M622 -9q-133 0 -197 108q-36 -57 -84 -82.5t-120 -25.5q-77 0 -125.5 38.5t-48.5 115.5q0 59 38 97t93.5 53t127.5 15h78v34q0 63 -27 91t-85 28q-108 0 -120 -94h-83q8 84 65.5 123.5t141.5 39.5q123 0 164 -89q64 89 176 89q97 0 162 -64t65 -196v-25h-379
q6 -187 159 -187q117 0 133 91h83q-14 -77 -72 -118.5t-145 -41.5zM229 57q68 0 111.5 33.5t43.5 92.5v64h-75q-179 0 -179 -102q0 -88 99 -88zM758 310q-6 81 -41.5 117t-100.5 36q-60 0 -99.5 -40.5t-49.5 -112.5h291zM475 760h104l-104 -147h-62z" />
    <glyph glyph-name="Oslashacute" unicode="&#x1fe;" horiz-adv-x="811" 
d="M41 12l98 107q-78 98 -78 234v8q0 155 98.5 259t253.5 104q123 0 214 -70l81 88l45 -45l-79 -87q88 -101 88 -247v-8q0 -154 -97 -259t-250 -105q-136 0 -232 82l-97 -106zM415 63q118 0 187.5 81t69.5 212v8q0 112 -52 188l-384 -421q71 -68 179 -68zM151 354
q0 -99 44 -173l382 418q-68 55 -164 55q-122 0 -192 -80.5t-70 -211.5v-8zM431 898h104l-98 -127h-62z" />
    <glyph glyph-name="oslashacute" unicode="&#x1ff;" horiz-adv-x="604" 
d="M29 1l77 85q-55 71 -55 171v8q0 117 72.5 192t184.5 75q89 0 156 -50l68 74l44 -38l-70 -77q59 -75 59 -175v-8q0 -118 -73 -192.5t-185 -74.5q-94 0 -160 54l-74 -82zM308 60q78 0 124.5 54t46.5 143v7q0 66 -27 117l-256 -281q44 -40 112 -40zM137 257q0 -65 24 -111
l253 280q-43 37 -106 37q-79 0 -125 -54t-46 -144v-8zM332 760h104l-104 -147h-62z" />
    <glyph glyph-name="uni0218" unicode="&#x218;" horiz-adv-x="627" 
d="M327 -9q-133 0 -197.5 62.5t-75.5 164.5h84q5 -35 14.5 -61t30 -49t56.5 -35t88 -12q70 0 116.5 37.5t46.5 97.5q0 62 -36.5 92t-136.5 45q-121 19 -180 62.5t-59 134.5q0 83 65 138.5t165 55.5q108 0 171.5 -50.5t74.5 -146.5h-78q-13 68 -52.5 97.5t-115.5 29.5
q-72 0 -110.5 -31.5t-38.5 -84.5q0 -56 34 -84.5t138 -43.5q126 -19 184.5 -65.5t58.5 -142.5q0 -90 -70.5 -150.5t-176.5 -60.5zM224 -194l58 157l80 -24l-87 -159z" />
    <glyph glyph-name="uni0219" unicode="&#x219;" horiz-adv-x="480" 
d="M252 -9q-94 0 -147.5 44.5t-57.5 125.5h81q6 -50 34.5 -75.5t88.5 -25.5q59 0 86.5 20.5t27.5 62.5q0 39 -28.5 57.5t-93.5 30.5q-102 18 -142 52t-40 102t54.5 107.5t122.5 39.5q77 0 128.5 -36t60.5 -115h-80q-9 43 -34.5 62.5t-75.5 19.5q-45 0 -72 -20.5t-27 -54.5
q0 -35 25.5 -53t96.5 -30q39 -8 61.5 -14t49 -17.5t40.5 -27t23.5 -39.5t9.5 -57q0 -74 -49 -116.5t-143 -42.5zM160 -194l58 157l80 -24l-87 -159z" />
    <glyph glyph-name="uni021A" unicode="&#x21a;" horiz-adv-x="561" 
d="M243 644h-208v71h503v-71h-208v-644h-87v644zM202 -194l58 157l80 -24l-87 -159z" />
    <glyph glyph-name="uni021B" unicode="&#x21b;" horiz-adv-x="355" 
d="M249 -7q-70 0 -105.5 37t-35.5 101v322h-75v70h75v119h83v-119h122v-70h-122v-314q0 -76 65 -76q34 0 64 11v-70q-27 -11 -71 -11zM113 -194l58 157l80 -24l-87 -159z" />
    <glyph glyph-name="uni0237" unicode="&#x237;" horiz-adv-x="255" 
d="M9 -121q43 4 60 23.5t17 57.5v563h83v-556q0 -77 -37.5 -116t-122.5 -42v70z" />
    <glyph glyph-name="uni02BC" unicode="&#x2bc;" horiz-adv-x="267" 
d="M53 514l89 212l79 -36l-117 -202z" />
    <glyph glyph-name="circumflex" unicode="&#x2c6;" horiz-adv-x="412" 
d="M169 757h75l107 -144h-61l-85 75l-85 -75h-59z" />
    <glyph glyph-name="caron" unicode="&#x2c7;" horiz-adv-x="412" 
d="M61 757h61l85 -75l85 75h59l-108 -144h-75z" />
    <glyph glyph-name="breve" unicode="&#x2d8;" horiz-adv-x="412" 
d="M204 619q-54 0 -92 37.5t-40 94.5h66q11 -64 66 -64q59 0 72 64h64q-4 -57 -42.5 -94.5t-93.5 -37.5z" />
    <glyph glyph-name="dotaccent" unicode="&#x2d9;" horiz-adv-x="412" 
d="M206 632q-23 0 -39 16t-16 39t16 39t39 16t39 -16t16 -39t-16 -39t-39 -16z" />
    <glyph glyph-name="ring" unicode="&#x2da;" horiz-adv-x="412" 
d="M206 644q23 0 38 16.5t15 41.5t-15 41.5t-38 16.5t-38 -16.5t-15 -41.5t15 -41.5t38 -16.5zM206 598q-44 0 -75.5 30.5t-31.5 73.5t31.5 73.5t75.5 30.5t75.5 -30.5t31.5 -73.5t-31.5 -73.5t-75.5 -30.5z" />
    <glyph glyph-name="ogonek" unicode="&#x2db;" horiz-adv-x="412" 
d="M229 -182q-48 0 -76 21t-28 59q0 31 22 58t56 44h69q-68 -47 -68 -86q0 -36 38 -36q31 0 52 11v-59q-29 -12 -65 -12z" />
    <glyph glyph-name="tilde" unicode="&#x2dc;" horiz-adv-x="412" 
d="M260 619q-23 0 -59 21.5t-49 21.5q-14 0 -25 -12.5t-15 -32.5h-60q6 53 34 84.5t67 31.5q23 0 58.5 -21.5t48.5 -21.5q14 0 25 12.5t15 32.5h60q-6 -53 -33.5 -84.5t-66.5 -31.5z" />
    <glyph glyph-name="hungarumlaut" unicode="&#x2dd;" horiz-adv-x="412" 
d="M142 760h95l-75 -147h-60zM296 760h95l-75 -147h-60z" />
    <glyph glyph-name="uni037E" unicode="&#x37e;" horiz-adv-x="292" 
d="M27 -95l96 219l81 -38l-123 -209zM161 292q-26 0 -45 18.5t-19 45.5t19 45.5t45 18.5t45 -18.5t19 -45.5t-19 -45.5t-45 -18.5z" />
    <glyph glyph-name="tonos" unicode="&#x384;" horiz-adv-x="400" 
d="M229 760h104l-104 -147h-62z" />
    <glyph glyph-name="dieresistonos" unicode="&#x385;" horiz-adv-x="400" 
d="M187 785h97l-78 -147h-59zM329 634q-22 0 -37.5 15.5t-15.5 37.5t15.5 37.5t37.5 15.5t37.5 -15.5t15.5 -37.5t-15.5 -37.5t-37.5 -15.5zM71 634q-22 0 -37.5 15.5t-15.5 37.5t15.5 37.5t37.5 15.5t37.5 -15.5t15.5 -37.5t-15.5 -37.5t-37.5 -15.5z" />
    <glyph glyph-name="Alphatonos" unicode="&#x386;" horiz-adv-x="674" 
d="M288 715h114l242 -715h-86l-70 206h-295l-69 -206h-82zM217 275h248l-124 368zM79 715h104l-104 -147h-62z" />
    <glyph glyph-name="anoteleia" unicode="&#x387;" horiz-adv-x="282" 
d="M147 263q-26 0 -45 18.5t-19 45.5t19 45.5t45 18.5t45 -18.5t19 -45.5t-19 -45.5t-45 -18.5z" />
    <glyph glyph-name="Epsilontonos" unicode="&#x388;" horiz-adv-x="566" 
d="M96 715h417v-71h-330v-243h266v-71h-266v-259h348v-71h-435v715zM-51 715h104l-104 -147h-62z" />
    <glyph glyph-name="Etatonos" unicode="&#x389;" horiz-adv-x="730" 
d="M96 715h87v-324h376v324h87v-715h-87v318h-376v-318h-87v715zM-51 715h104l-104 -147h-62z" />
    <glyph glyph-name="Iotatonos" unicode="&#x38a;" horiz-adv-x="277" 
d="M101 715h87v-715h-87v715zM-51 715h104l-104 -147h-62z" />
    <glyph glyph-name="Omicrontonos" unicode="&#x38c;" horiz-adv-x="811" 
d="M415 63q118 0 187.5 81t69.5 212v8q0 124 -70 207t-189 83q-122 0 -192 -80.5t-70 -211.5v-8q0 -128 75.5 -209.5t188.5 -81.5zM415 -9q-156 0 -255 104.5t-99 257.5v8q0 155 98.5 259t253.5 104t252 -103.5t97 -257.5v-8q0 -154 -97 -259t-250 -105zM19 715h104
l-104 -147h-62z" />
    <glyph glyph-name="Upsilontonos" unicode="&#x38e;" horiz-adv-x="598" 
d="M268 312l-239 403h98l187 -332l180 332h87l-226 -404v-311h-87v312zM-91 715h104l-104 -147h-62z" />
    <glyph glyph-name="Omegatonos" unicode="&#x38f;" horiz-adv-x="817" 
d="M145 363q0 -208 202 -327v-36h-290v67h148q-61 37 -105.5 116.5t-44.5 178.5v8q0 89 39.5 168.5t122.5 132.5t193 53t192 -52.5t121 -131.5t39 -170v-8q0 -107 -44 -182t-105 -113h147v-67h-290v36q202 103 202 327v8q0 42 -9.5 82t-30.5 76.5t-51 64t-74 44t-97 16.5
q-88 0 -149.5 -41.5t-88.5 -104t-27 -137.5v-8zM19 715h104l-104 -147h-62z" />
    <glyph glyph-name="iotadieresistonos" unicode="&#x390;" horiz-adv-x="255" 
d="M86 523h83v-523h-83v523zM137 785h97l-78 -147h-59zM279 634q-22 0 -37.5 15.5t-15.5 37.5t15.5 37.5t37.5 15.5t37.5 -15.5t15.5 -37.5t-15.5 -37.5t-37.5 -15.5zM21 634q-22 0 -37.5 15.5t-15.5 37.5t15.5 37.5t37.5 15.5t37.5 -15.5t15.5 -37.5t-15.5 -37.5
t-37.5 -15.5z" />
    <glyph glyph-name="Alpha" unicode="&#x391;" horiz-adv-x="674" 
d="M288 715h114l242 -715h-86l-70 206h-295l-69 -206h-82zM217 275h248l-124 368z" />
    <glyph glyph-name="Beta" unicode="&#x392;" horiz-adv-x="622" 
d="M96 715h215q230 0 230 -185v-4q0 -114 -108 -151q77 -18 110 -59t33 -112v-4q0 -99 -62.5 -149.5t-172.5 -50.5h-245v715zM339 68q152 0 152 133v4q0 67 -39 98.5t-125 31.5h-146v-267h158zM311 403q78 0 111.5 29.5t33.5 96.5v4q0 60 -35.5 87t-111.5 27h-128v-244h130z
" />
    <glyph glyph-name="Gamma" unicode="&#x393;" horiz-adv-x="531" 
d="M90 715h412v-71h-325v-644h-87v715z" />
    <glyph glyph-name="uni0394" unicode="&#x394;" horiz-adv-x="682" 
d="M41 14l240 701h124l236 -701v-14h-600v14zM143 74h392l-196 581z" />
    <glyph glyph-name="Epsilon" unicode="&#x395;" horiz-adv-x="566" 
d="M96 715h417v-71h-330v-243h266v-71h-266v-259h348v-71h-435v715z" />
    <glyph glyph-name="Zeta" unicode="&#x396;" horiz-adv-x="595" 
d="M34 14l405 630h-369v71h489v-13l-394 -628h388v-74h-519v14z" />
    <glyph glyph-name="Eta" unicode="&#x397;" horiz-adv-x="730" 
d="M96 715h87v-324h376v324h87v-715h-87v318h-376v-318h-87v715z" />
    <glyph glyph-name="Theta" unicode="&#x398;" horiz-adv-x="811" 
d="M409 -9q-156 0 -255 104.5t-99 257.5v8q0 155 98.5 259t253.5 104t252 -103.5t97 -257.5v-8q0 -154 -97 -259t-250 -105zM409 63q118 0 187.5 81t69.5 212v8q0 124 -70 207t-189 83q-122 0 -192 -80.5t-70 -211.5v-8q0 -128 75.5 -209.5t188.5 -81.5zM265 398h281v-73
h-281v73z" />
    <glyph glyph-name="Iota" unicode="&#x399;" horiz-adv-x="277" 
d="M101 715h87v-715h-87v715z" />
    <glyph glyph-name="Kappa" unicode="&#x39a;" horiz-adv-x="616" 
d="M96 715h87v-344l311 345h97l-318 -348l334 -368h-105l-319 349v-349h-87v715z" />
    <glyph glyph-name="Lambda" unicode="&#x39b;" horiz-adv-x="666" 
d="M630 0h-86l-213 631l-213 -631h-82l247 715h104z" />
    <glyph glyph-name="Mu" unicode="&#x39c;" horiz-adv-x="856" 
d="M96 715h121l221 -557l214 557h120v-715h-87v602l-237 -602h-27l-245 602v-602h-80v715z" />
    <glyph glyph-name="Nu" unicode="&#x39d;" horiz-adv-x="724" 
d="M96 715h113l348 -591v591h83v-715h-100l-361 613v-613h-83v715z" />
    <glyph glyph-name="Xi" unicode="&#x39e;" horiz-adv-x="577" 
d="M529 715v-75h-481v75h481zM479 396v-73h-381v73h381zM40 75h497v-75h-497v75z" />
    <glyph glyph-name="Omicron" unicode="&#x39f;" horiz-adv-x="811" 
d="M415 63q118 0 187.5 81t69.5 212v8q0 124 -70 207t-189 83q-122 0 -192 -80.5t-70 -211.5v-8q0 -128 75.5 -209.5t188.5 -81.5zM415 -9q-156 0 -255 104.5t-99 257.5v8q0 155 98.5 259t253.5 104t252 -103.5t97 -257.5v-8q0 -154 -97 -259t-250 -105z" />
    <glyph glyph-name="Pi" unicode="&#x3a0;" horiz-adv-x="718" 
d="M90 715h538v-715h-87v642h-364v-642h-87v715z" />
    <glyph glyph-name="Rho" unicode="&#x3a1;" horiz-adv-x="581" 
d="M96 715h203q110 0 180 -51.5t70 -157.5v-4q0 -108 -69.5 -159.5t-180.5 -51.5h-116v-291h-87v715zM305 360q77 0 117 36.5t40 105.5v4q0 139 -157 139h-122v-285h122z" />
    <glyph glyph-name="Sigma" unicode="&#x3a3;" horiz-adv-x="573" 
d="M60 640v75h455v-71h-357l223 -274l-224 -295h376v-75h-476v61l227 301z" />
    <glyph glyph-name="Tau" unicode="&#x3a4;" horiz-adv-x="561" 
d="M243 644h-208v71h503v-71h-208v-644h-87v644z" />
    <glyph glyph-name="Upsilon" unicode="&#x3a5;" horiz-adv-x="598" 
d="M268 312l-239 403h98l187 -332l180 332h87l-226 -404v-311h-87v312z" />
    <glyph glyph-name="Phi" unicode="&#x3a6;" horiz-adv-x="865" 
d="M391 53q-156 6 -246 94.5t-90 208.5v6q0 123 89 211t247 92v70h83v-70q158 -4 247 -91t89 -210v-6q0 -123 -89 -211t-247 -94v-73h-83v73zM145 357q0 -97 65.5 -160.5t180.5 -73.5v475q-124 -8 -185 -72t-61 -163v-6zM720 365q0 95 -61.5 160t-184.5 73v-476
q122 8 184 71.5t62 164.5v7z" />
    <glyph glyph-name="Chi" unicode="&#x3a7;" horiz-adv-x="657" 
d="M287 367l-220 348h96l178 -281l177 281h89l-222 -348l233 -367h-98l-191 301l-191 -301h-87z" />
    <glyph glyph-name="Psi" unicode="&#x3a8;" horiz-adv-x="774" 
d="M345 187q-141 6 -209 79.5t-68 191.5v257h87v-250q0 -100 44 -151.5t146 -56.5v458h83v-458q101 6 148 56.5t47 168.5v233h83v-250q0 -120 -66.5 -195t-211.5 -83v-187h-83v187z" />
    <glyph glyph-name="uni03A9" unicode="&#x3a9;" horiz-adv-x="817" 
d="M145 363q0 -208 202 -327v-36h-290v67h148q-61 37 -105.5 116.5t-44.5 178.5v8q0 89 39.5 168.5t122.5 132.5t193 53t192 -52.5t121 -131.5t39 -170v-8q0 -107 -44 -182t-105 -113h147v-67h-290v36q202 103 202 327v8q0 42 -9.5 82t-30.5 76.5t-51 64t-74 44t-97 16.5
q-88 0 -149.5 -41.5t-88.5 -104t-27 -137.5v-8z" />
    <glyph glyph-name="Iotadieresis" unicode="&#x3aa;" horiz-adv-x="277" 
d="M101 715h87v-715h-87v715zM42 789q-22 0 -37.5 15.5t-15.5 37.5t15.5 37.5t37.5 15.5t37.5 -15.5t15.5 -37.5t-15.5 -37.5t-37.5 -15.5zM245 789q-22 0 -37.5 15.5t-15.5 37.5t15.5 37.5t37.5 15.5t37.5 -15.5t15.5 -37.5t-15.5 -37.5t-37.5 -15.5z" />
    <glyph glyph-name="Upsilondieresis" unicode="&#x3ab;" horiz-adv-x="598" 
d="M268 312l-239 403h98l187 -332l180 332h87l-226 -404v-311h-87v312zM212 789q-22 0 -37.5 15.5t-15.5 37.5t15.5 37.5t37.5 15.5t37.5 -15.5t15.5 -37.5t-15.5 -37.5t-37.5 -15.5zM415 789q-22 0 -37.5 15.5t-15.5 37.5t15.5 37.5t37.5 15.5t37.5 -15.5t15.5 -37.5
t-15.5 -37.5t-37.5 -15.5z" />
    <glyph glyph-name="alphatonos" unicode="&#x3ac;" horiz-adv-x="627" 
d="M290 60q77 0 125 50.5t48 147.5v8q0 99 -43.5 148t-122.5 49q-78 0 -122 -52t-44 -148v-8q0 -95 44.5 -145t114.5 -50zM281 -9q-105 0 -170.5 69.5t-65.5 190.5v8q0 120 68 196.5t176 76.5q114 0 171 -93v84h83v-523h-83v90q-23 -40 -74 -69.5t-105 -29.5zM338 760h104
l-104 -147h-62z" />
    <glyph glyph-name="epsilontonos" unicode="&#x3ad;" horiz-adv-x="554" 
d="M163 272q-45 7 -74 37t-29 72q0 62 53.5 106.5t166.5 44.5q208 0 227 -148h-82q-7 39 -37 59t-106 20q-138 0 -138 -86q0 -29 25 -51.5t75 -22.5h102v-67h-103q-112 0 -112 -90q0 -86 145 -86q148 0 157 94h79q-6 -79 -70 -121t-165 -42q-110 0 -170 40t-60 112
q0 50 31.5 83.5t84.5 45.5zM318 760h104l-104 -147h-62z" />
    <glyph glyph-name="etatonos" unicode="&#x3ae;" horiz-adv-x="598" 
d="M84 523h83v-83q20 40 63 66t105 26q86 0 135 -51t49 -160v-503h-83v509q0 69 -30 101t-93 32q-61 0 -103.5 -38t-42.5 -105v-317h-83v523zM338 760h104l-104 -147h-62z" />
    <glyph glyph-name="iotatonos" unicode="&#x3af;" horiz-adv-x="255" 
d="M86 523h83v-523h-83v523zM160 760h104l-104 -147h-62z" />
    <glyph glyph-name="upsilondieresistonos" unicode="&#x3b0;" horiz-adv-x="589" 
d="M294 -9q-92 0 -153.5 56.5t-61.5 159.5v316h83v-313q0 -147 133 -147q132 0 132 147v313h83v-319q0 -103 -61.5 -158t-154.5 -55zM287 785h97l-78 -147h-59zM429 634q-22 0 -37.5 15.5t-15.5 37.5t15.5 37.5t37.5 15.5t37.5 -15.5t15.5 -37.5t-15.5 -37.5t-37.5 -15.5z
M171 634q-22 0 -37.5 15.5t-15.5 37.5t15.5 37.5t37.5 15.5t37.5 -15.5t15.5 -37.5t-15.5 -37.5t-37.5 -15.5z" />
    <glyph glyph-name="alpha" unicode="&#x3b1;" horiz-adv-x="627" 
d="M290 60q77 0 125 50.5t48 147.5v8q0 99 -43.5 148t-122.5 49q-78 0 -122 -52t-44 -148v-8q0 -95 44.5 -145t114.5 -50zM281 -9q-105 0 -170.5 69.5t-65.5 190.5v8q0 120 68 196.5t176 76.5q114 0 171 -93v84h83v-523h-83v90q-23 -40 -74 -69.5t-105 -29.5z" />
    <glyph glyph-name="beta" unicode="&#x3b2;" horiz-adv-x="609" 
d="M285 442q81 -2 122.5 36t41.5 101v4q0 58 -36.5 91.5t-102.5 33.5q-65 0 -104 -40.5t-39 -110.5v-321q0 -86 48.5 -131t110.5 -45q71 0 113 38.5t42 111.5v7q0 80 -51.5 119.5t-144.5 34.5v71zM404 411q69 -13 116 -62.5t47 -128.5v-8q0 -100 -67.5 -160.5t-168.5 -60.5
q-53 0 -97.5 25.5t-66.5 67.5v-266h-83v735q0 103 62 163t165 60t162.5 -53.5t59.5 -136.5v-4q0 -62 -34 -106.5t-95 -64.5z" />
    <glyph glyph-name="gamma" unicode="&#x3b3;" horiz-adv-x="541" 
d="M433 523h86l-206 -516v-189h-83v189l-208 516h90l161 -413z" />
    <glyph glyph-name="delta" unicode="&#x3b4;" horiz-adv-x="594" 
d="M117 773h391v-70h-273l188 -203q63 -67 94.5 -123t31.5 -123v-7q0 -113 -71 -184.5t-182 -71.5t-181 72t-70 183v6q0 97 66 168t160 71q39 0 62 -5l-216 233v54zM463 251q0 78 -45 127t-121 49q-75 0 -120.5 -49t-45.5 -126v-6q0 -81 43.5 -133.5t122.5 -52.5
q77 0 121.5 50.5t44.5 135.5v5z" />
    <glyph glyph-name="epsilon" unicode="&#x3b5;" horiz-adv-x="554" 
d="M163 272q-45 7 -74 37t-29 72q0 62 53.5 106.5t166.5 44.5q208 0 227 -148h-82q-7 39 -37 59t-106 20q-138 0 -138 -86q0 -29 25 -51.5t75 -22.5h102v-67h-103q-112 0 -112 -90q0 -86 145 -86q148 0 157 94h79q-6 -79 -70 -121t-165 -42q-110 0 -170 40t-60 112
q0 50 31.5 83.5t84.5 45.5z" />
    <glyph glyph-name="zeta" unicode="&#x3b6;" horiz-adv-x="501" 
d="M264 0q-93 0 -156 58t-63 149q0 128 84.5 260t198.5 234h-251v72h408v-23q-178 -153 -266 -285t-88 -253q0 -67 38.5 -103t94.5 -36h80q142 0 142 -114q0 -40 -20 -113h-76q14 62 14 97q0 57 -61 57h-79z" />
    <glyph glyph-name="eta" unicode="&#x3b7;" horiz-adv-x="598" 
d="M84 523h83v-83q20 40 63 66t105 26q86 0 135 -51t49 -160v-503h-83v509q0 69 -30 101t-93 32q-61 0 -103.5 -38t-42.5 -105v-317h-83v523z" />
    <glyph glyph-name="theta" unicode="&#x3b8;" horiz-adv-x="618" 
d="M553 359q0 -179 -63.5 -273.5t-180.5 -94.5t-180.5 94.5t-63.5 273.5v51q0 178 64 272t180 94q118 0 181 -93.5t63 -272.5v-51zM468 426q-6 281 -159 281q-152 0 -160 -281h319zM309 60q155 0 160 296h-320q5 -296 160 -296z" />
    <glyph glyph-name="iota" unicode="&#x3b9;" horiz-adv-x="255" 
d="M86 523h83v-523h-83v523z" />
    <glyph glyph-name="kappa" unicode="&#x3ba;" horiz-adv-x="516" 
d="M167 259v-259h-83v523h83v-253l230 253h97l-237 -255l247 -268h-99z" />
    <glyph glyph-name="lambda" unicode="&#x3bb;" horiz-adv-x="546" 
d="M172 659q-18 48 -61 48q-23 0 -60 -11v69q36 11 78 11q44 0 71.5 -24t45.5 -74l200 -559q20 -53 53 -53q15 0 37 6v-70q-21 -6 -49 -6q-39 0 -68.5 24t-44.5 69l-111 334l-153 -423h-85l197 520z" />
    <glyph glyph-name="uni03BC" unicode="&#x3bc;" horiz-adv-x="599" 
d="M84 523h83v-334q0 -126 121 -126q60 0 102 38t42 105v317h83v-523h-83v83q-19 -39 -60 -64t-98 -25q-76 0 -107 55v-231h-83v705z" />
    <glyph glyph-name="nu" unicode="&#x3bd;" horiz-adv-x="534" 
d="M31 523h90l155 -439l153 439h86l-188 -523h-106z" />
    <glyph glyph-name="xi" unicode="&#x3be;" horiz-adv-x="521" 
d="M354 73q142 0 142 -114q0 -40 -20 -113h-76q14 62 14 97q0 57 -61 57h-61q-107 0 -177 57t-70 152q0 81 44.5 135.5t115.5 70.5q-105 39 -105 144q0 111 108 144h-154v70h431v-70h-117q-79 0 -130.5 -37.5t-51.5 -105.5q0 -51 37.5 -82.5t101.5 -31.5h115v-70h-128
q-84 0 -132.5 -45.5t-48.5 -121.5q0 -64 44 -100t119 -36h60z" />
    <glyph glyph-name="omicron" unicode="&#x3bf;" horiz-adv-x="604" 
d="M301 -9q-111 0 -183.5 75.5t-72.5 190.5v8q0 117 72.5 192t184.5 75t184.5 -74.5t72.5 -191.5v-8q0 -118 -73 -192.5t-185 -74.5zM302 60q78 0 124.5 54t46.5 143v7q0 91 -46.5 145t-124.5 54q-79 0 -125 -54t-46 -144v-8q0 -91 45.5 -144t125.5 -53z" />
    <glyph glyph-name="pi" unicode="&#x3c0;" horiz-adv-x="597" 
d="M412 453h-227v-453h-83v453h-75v70h543v-70h-75v-453h-83v453z" />
    <glyph glyph-name="rho" unicode="&#x3c1;" horiz-adv-x="607" 
d="M315 60q77 0 119 53t42 144v7q0 91 -44.5 145t-121.5 54q-78 0 -122 -53.5t-44 -144.5v-8q0 -95 45 -146t126 -51zM316 -8q-55 0 -99.5 25t-69.5 69v-268h-83v450q0 118 67.5 191t178.5 73t181.5 -74t70.5 -192v-8q0 -118 -67.5 -192t-178.5 -74z" />
    <glyph glyph-name="uni03C2" unicode="&#x3c2;" horiz-adv-x="570" 
d="M131 256q0 -81 41 -132t124 -51h48q142 0 142 -114q0 -40 -20 -113h-76q14 62 14 97q0 57 -61 57h-49q-112 0 -180.5 70t-68.5 186v8q0 118 73.5 193t180.5 75q90 0 153 -44.5t74 -138.5h-82q-18 114 -145 114q-73 0 -120.5 -54.5t-47.5 -144.5v-8z" />
    <glyph glyph-name="sigma" unicode="&#x3c3;" horiz-adv-x="617" 
d="M301 -9q-111 0 -183.5 75.5t-72.5 190.5v8q0 115 70 186.5t187 71.5h285v-70h-140q50 -22 81 -71.5t31 -115.5v-8q0 -118 -73 -192.5t-185 -74.5zM302 60q78 0 124.5 54t46.5 143v7q0 90 -46 139.5t-125 49.5q-82 0 -126.5 -49.5t-44.5 -138.5v-8q0 -91 45.5 -144
t125.5 -53z" />
    <glyph glyph-name="tau" unicode="&#x3c4;" horiz-adv-x="483" 
d="M349 -7q-80 0 -118.5 46.5t-38.5 115.5v298h-165v70h421v-70h-173v-300q0 -90 78 -90q41 0 71 11v-70q-27 -11 -75 -11z" />
    <glyph glyph-name="upsilon" unicode="&#x3c5;" horiz-adv-x="589" 
d="M294 -9q-92 0 -153.5 56.5t-61.5 159.5v316h83v-313q0 -147 133 -147q132 0 132 147v313h83v-319q0 -103 -61.5 -158t-154.5 -55z" />
    <glyph glyph-name="phi" unicode="&#x3c6;" horiz-adv-x="752" 
d="M707 267q0 -129 -79 -200.5t-212 -73.5v-175h-83v175q-138 6 -213 77t-75 184v8q0 111 59.5 181t156.5 86v-67q-130 -41 -130 -200v-8q0 -88 47.5 -136.5t154.5 -56.5v468q16 3 66 3q151 0 229.5 -73.5t78.5 -183.5v-8zM621 273q0 86 -53.5 137.5t-151.5 52.5v-402
q205 7 205 205v7z" />
    <glyph glyph-name="chi" unicode="&#x3c7;" horiz-adv-x="540" 
d="M236 181l-125 245q-17 33 -47 33q-18 0 -37 -9v69q23 9 54 9q65 0 98 -65l107 -210l134 270h90l-185 -347l124 -242q25 -49 59 -49q12 0 30 5v-70q-26 -7 -44 -7q-70 0 -117 93l-102 199l-148 -287h-89z" />
    <glyph glyph-name="psi" unicode="&#x3c8;" horiz-adv-x="737" 
d="M152 246q0 -166 175 -183v460h83v-460q175 17 175 183v277h83v-277q0 -106 -63.5 -173t-194.5 -76v-179h-83v179q-135 9 -196.5 78t-61.5 179v269h83v-277z" />
    <glyph glyph-name="omega" unicode="&#x3c9;" horiz-adv-x="761" 
d="M422 190q0 -63 27 -96.5t71 -33.5q54 0 82 45.5t28 129.5v7q0 198 -143 221v70q115 -11 172 -91t57 -200v-8q0 -106 -51 -174.5t-136 -68.5q-110 0 -148 107q-34 -107 -149 -107q-85 0 -136 68.5t-51 175.5v8q0 119 58.5 198.5t170.5 91.5v-70q-40 -6 -69.5 -27.5
t-44.5 -54t-22 -66.5t-7 -72v-8q0 -175 111 -175q43 0 70 34.5t27 95.5v161h83v-161z" />
    <glyph glyph-name="iotadieresis" unicode="&#x3ca;" horiz-adv-x="255" 
d="M86 523h83v-523h-83v523zM40 634q-22 0 -37.5 15.5t-15.5 37.5t15.5 37.5t37.5 15.5t37.5 -15.5t15.5 -37.5t-15.5 -37.5t-37.5 -15.5zM228 634q-22 0 -37.5 15.5t-15.5 37.5t15.5 37.5t37.5 15.5t37.5 -15.5t15.5 -37.5t-15.5 -37.5t-37.5 -15.5z" />
    <glyph glyph-name="upsilondieresis" unicode="&#x3cb;" horiz-adv-x="589" 
d="M294 -9q-92 0 -153.5 56.5t-61.5 159.5v316h83v-313q0 -147 133 -147q132 0 132 147v313h83v-319q0 -103 -61.5 -158t-154.5 -55zM206 634q-22 0 -37.5 15.5t-15.5 37.5t15.5 37.5t37.5 15.5t37.5 -15.5t15.5 -37.5t-15.5 -37.5t-37.5 -15.5zM394 634q-22 0 -37.5 15.5
t-15.5 37.5t15.5 37.5t37.5 15.5t37.5 -15.5t15.5 -37.5t-15.5 -37.5t-37.5 -15.5z" />
    <glyph glyph-name="omicrontonos" unicode="&#x3cc;" horiz-adv-x="604" 
d="M301 -9q-111 0 -183.5 75.5t-72.5 190.5v8q0 117 72.5 192t184.5 75t184.5 -74.5t72.5 -191.5v-8q0 -118 -73 -192.5t-185 -74.5zM302 60q78 0 124.5 54t46.5 143v7q0 91 -46.5 145t-124.5 54q-79 0 -125 -54t-46 -144v-8q0 -91 45.5 -144t125.5 -53zM338 760h104
l-104 -147h-62z" />
    <glyph glyph-name="upsilontonos" unicode="&#x3cd;" horiz-adv-x="589" 
d="M294 -9q-92 0 -153.5 56.5t-61.5 159.5v316h83v-313q0 -147 133 -147q132 0 132 147v313h83v-319q0 -103 -61.5 -158t-154.5 -55zM326 760h104l-104 -147h-62z" />
    <glyph glyph-name="omegatonos" unicode="&#x3ce;" horiz-adv-x="761" 
d="M422 190q0 -63 27 -96.5t71 -33.5q54 0 82 45.5t28 129.5v7q0 198 -143 221v70q115 -11 172 -91t57 -200v-8q0 -106 -51 -174.5t-136 -68.5q-110 0 -148 107q-34 -107 -149 -107q-85 0 -136 68.5t-51 175.5v8q0 119 58.5 198.5t170.5 91.5v-70q-40 -6 -69.5 -27.5
t-44.5 -54t-22 -66.5t-7 -72v-8q0 -175 111 -175q43 0 70 34.5t27 95.5v161h83v-161zM421 760h104l-104 -147h-62z" />
    <glyph glyph-name="uni0401" unicode="&#x401;" horiz-adv-x="566" 
d="M96 715h417v-71h-330v-243h266v-71h-266v-259h348v-71h-435v715zM214 789q-22 0 -37.5 15.5t-15.5 37.5t15.5 37.5t37.5 15.5t37.5 -15.5t15.5 -37.5t-15.5 -37.5t-37.5 -15.5zM417 789q-22 0 -37.5 15.5t-15.5 37.5t15.5 37.5t37.5 15.5t37.5 -15.5t15.5 -37.5
t-15.5 -37.5t-37.5 -15.5z" />
    <glyph glyph-name="uni0402" unicode="&#x402;" horiz-adv-x="771" 
d="M324 372q66 62 174 62t166.5 -57.5t58.5 -165.5q0 -112 -50 -166t-125 -54q-56 0 -84 19v72q36 -20 73 -20q45 0 72.5 35.5t27.5 112.5q0 78 -36 117t-115 39q-92 0 -162 -81v-285h-87v644h-208v71h513v-71h-218v-272z" />
    <glyph glyph-name="uni0403" unicode="&#x403;" horiz-adv-x="536" 
d="M90 715h408v-74h-321v-641h-87v715zM323 898h104l-98 -127h-62z" />
    <glyph glyph-name="uni0404" unicode="&#x404;" horiz-adv-x="730" 
d="M688 237q-18 -121 -97 -183.5t-202 -62.5q-155 0 -244.5 98t-89.5 264v8q0 159 95 262t241 103q117 0 197.5 -61t92.5 -173h-86q-15 83 -63.5 124t-139.5 41q-103 0 -169 -69t-76 -187h346v-71h-347q5 -127 69.5 -197.5t175.5 -70.5q89 0 145.5 44.5t70.5 130.5h81z" />
    <glyph glyph-name="uni0405" unicode="&#x405;" horiz-adv-x="627" 
d="M327 -9q-133 0 -197.5 62.5t-75.5 164.5h84q5 -35 14.5 -61t30 -49t56.5 -35t88 -12q70 0 116.5 37.5t46.5 97.5q0 62 -36.5 92t-136.5 45q-121 19 -180 62.5t-59 134.5q0 83 65 138.5t165 55.5q108 0 171.5 -50.5t74.5 -146.5h-78q-13 68 -52.5 97.5t-115.5 29.5
q-72 0 -110.5 -31.5t-38.5 -84.5q0 -56 34 -84.5t138 -43.5q126 -19 184.5 -65.5t58.5 -142.5q0 -90 -70.5 -150.5t-176.5 -60.5z" />
    <glyph glyph-name="uni0406" unicode="&#x406;" horiz-adv-x="277" 
d="M101 715h87v-715h-87v715z" />
    <glyph glyph-name="uni0407" unicode="&#x407;" horiz-adv-x="277" 
d="M101 715h87v-715h-87v715zM44 789q-22 0 -37.5 15.5t-15.5 37.5t15.5 37.5t37.5 15.5t37.5 -15.5t15.5 -37.5t-15.5 -37.5t-37.5 -15.5zM247 789q-22 0 -37.5 15.5t-15.5 37.5t15.5 37.5t37.5 15.5t37.5 -15.5t15.5 -37.5t-15.5 -37.5t-37.5 -15.5z" />
    <glyph glyph-name="uni0408" unicode="&#x408;" horiz-adv-x="420" 
d="M144 -9q-67 0 -100 19v72q49 -20 95 -20q116 0 116 136v517h87v-521q0 -102 -55 -152.5t-143 -50.5z" />
    <glyph glyph-name="uni0409" unicode="&#x409;" horiz-adv-x="983" 
d="M502 642h-253q-8 -259 -16 -391q-15 -259 -169 -259q-21 0 -30 4l-9 4v84l9 -2q14 -2 30 -2q41 0 60 42t28 136q8 108 14 303l3 154h420v-291h106q111 0 180.5 -50t69.5 -157v-4q0 -105 -70.5 -159t-179.5 -54h-193v642zM701 70q157 0 157 143v4q0 138 -157 138h-112
v-285h112z" />
    <glyph glyph-name="uni040A" unicode="&#x40a;" horiz-adv-x="1023" 
d="M741 70q157 0 157 143v4q0 138 -157 138h-112v-285h112zM542 318h-365v-318h-87v715h87v-324h365v324h87v-291h106q111 0 180.5 -50t69.5 -157v-4q0 -105 -70.5 -159t-179.5 -54h-193v318z" />
    <glyph glyph-name="uni040B" unicode="&#x40b;" horiz-adv-x="781" 
d="M324 373q17 17 40 30q56 31 126 31q114 0 169 -62.5t55 -193.5v-178h-87v187q0 92 -32.5 135.5t-113.5 43.5q-72 0 -121 -37q-21 -15 -36 -37v-292h-87v644h-208v71h513v-71h-218v-271z" />
    <glyph glyph-name="uni040C" unicode="&#x40c;" horiz-adv-x="616" 
d="M343 898h104l-98 -127h-62zM96 715h87v-344l311 345h97l-318 -348l334 -368h-105l-319 349v-349h-87v715z" />
    <glyph glyph-name="uni040D" unicode="&#x40d;" horiz-adv-x="740" 
d="M90 0v715h87v-595l386 595h87v-715h-87v595l-386 -595h-87zM245 898h104l56 -127h-62z" />
    <glyph glyph-name="uni040E" unicode="&#x40e;" horiz-adv-x="588" 
d="M309 767q-54 0 -92 37.5t-40 94.5h72q6 -74 60 -74q59 0 66 74h70q-4 -57 -42.5 -94.5t-93.5 -37.5zM131 -8q-21 0 -30 4l-9 4v79l9 -2q14 -2 30 -2q43 0 73 22t54 72l-238 546h91l191 -446l194 446h82l-241 -546q-37 -86 -82.5 -131.5t-123.5 -45.5z" />
    <glyph glyph-name="uni040F" unicode="&#x40f;" horiz-adv-x="720" 
d="M90 0v715h87v-642h366v642h87v-715h-232l-2 -130h-72l-2 130h-232z" />
    <glyph glyph-name="uni0410" unicode="&#x410;" horiz-adv-x="674" 
d="M288 715h114l242 -715h-86l-70 206h-295l-69 -206h-82zM217 275h248l-124 368z" />
    <glyph glyph-name="uni0411" unicode="&#x411;" horiz-adv-x="622" 
d="M570 206q0 -100 -62.5 -153t-172.5 -53h-245v715h422v-71h-337v-231h159q236 0 236 -203v-4zM333 68q152 0 152 138v4q0 135 -160 135h-150v-277h158z" />
    <glyph glyph-name="uni0412" unicode="&#x412;" horiz-adv-x="622" 
d="M96 715h215q230 0 230 -185v-4q0 -114 -108 -151q77 -18 110 -59t33 -112v-4q0 -99 -62.5 -149.5t-172.5 -50.5h-245v715zM339 68q152 0 152 133v4q0 67 -39 98.5t-125 31.5h-146v-267h158zM311 403q78 0 111.5 29.5t33.5 96.5v4q0 60 -35.5 87t-111.5 27h-128v-244h130z
" />
    <glyph glyph-name="uni0413" unicode="&#x413;" horiz-adv-x="536" 
d="M90 715h408v-74h-321v-641h-87v715z" />
    <glyph glyph-name="uni0414" unicode="&#x414;" horiz-adv-x="697" 
d="M211 251q-9 -125 -47 -178h348v571h-280q-2 -28 -5 -105.5t-7 -152t-9 -135.5zM82 -130h-72v203h45q36 11 52.5 55t25.5 130q12 149 17 303q4 105 5 154h442v-642h80v-203h-72l-5 130h-513z" />
    <glyph glyph-name="uni0415" unicode="&#x415;" horiz-adv-x="566" 
d="M96 715h417v-71h-330v-243h266v-71h-266v-259h348v-71h-435v715z" />
    <glyph glyph-name="uni0416" unicode="&#x416;" horiz-adv-x="879" 
d="M395 351l-279 -351h-97l291 363l-283 352h97l271 -346v346h85v-346l271 346h95l-279 -347l293 -368h-101l-279 351v-351h-85v351z" />
    <glyph glyph-name="uni0417" unicode="&#x417;" horiz-adv-x="595" 
d="M293 -9q-119 0 -180.5 63t-72.5 164h84q9 -73 46.5 -115t122.5 -42q80 0 122 39.5t42 109.5q0 66 -38.5 95.5t-130.5 29.5h-91v66h91q138 0 138 131q0 122 -133 122q-66 0 -100.5 -29.5t-47.5 -97.5h-78q23 197 232 197q95 0 153.5 -52.5t58.5 -139.5q0 -56 -30.5 -99.5
t-87.5 -60.5q74 -11 112 -53t38 -109q0 -95 -69.5 -157t-180.5 -62z" />
    <glyph glyph-name="uni0418" unicode="&#x418;" horiz-adv-x="740" 
d="M90 0v715h87v-595l386 595h87v-715h-87v595l-386 -595h-87z" />
    <glyph glyph-name="uni0419" unicode="&#x419;" horiz-adv-x="740" 
d="M370 767q-54 0 -92 37.5t-40 94.5h72q6 -74 60 -74q59 0 66 74h70q-4 -57 -42.5 -94.5t-93.5 -37.5zM90 0v715h87v-595l386 595h87v-715h-87v595l-386 -595h-87z" />
    <glyph glyph-name="uni041A" unicode="&#x41a;" horiz-adv-x="616" 
d="M96 715h87v-344l311 345h97l-318 -348l334 -368h-105l-319 349v-349h-87v715z" />
    <glyph glyph-name="uni041B" unicode="&#x41b;" horiz-adv-x="689" 
d="M233 251q-15 -259 -169 -259q-21 0 -30 4l-9 4v84l9 -2q14 -2 30 -2q41 0 60 42t28 136q8 108 14 303l3 154h430v-715h-87v642h-263q-8 -259 -16 -391z" />
    <glyph glyph-name="uni041C" unicode="&#x41c;" horiz-adv-x="856" 
d="M96 715h121l221 -557l214 557h120v-715h-87v602l-237 -602h-27l-245 602v-602h-80v715z" />
    <glyph glyph-name="uni041D" unicode="&#x41d;" horiz-adv-x="730" 
d="M96 715h87v-324h376v324h87v-715h-87v318h-376v-318h-87v715z" />
    <glyph glyph-name="uni041E" unicode="&#x41e;" horiz-adv-x="811" 
d="M415 63q118 0 187.5 81t69.5 212v8q0 124 -70 207t-189 83q-122 0 -192 -80.5t-70 -211.5v-8q0 -128 75.5 -209.5t188.5 -81.5zM415 -9q-156 0 -255 104.5t-99 257.5v8q0 155 98.5 259t253.5 104t252 -103.5t97 -257.5v-8q0 -154 -97 -259t-250 -105z" />
    <glyph glyph-name="uni041F" unicode="&#x41f;" horiz-adv-x="720" 
d="M543 642h-366v-642h-87v715h540v-715h-87v642z" />
    <glyph glyph-name="uni0420" unicode="&#x420;" horiz-adv-x="581" 
d="M96 715h203q110 0 180 -51.5t70 -157.5v-4q0 -108 -69.5 -159.5t-180.5 -51.5h-116v-291h-87v715zM305 360q77 0 117 36.5t40 105.5v4q0 139 -157 139h-122v-285h122z" />
    <glyph glyph-name="uni0421" unicode="&#x421;" horiz-adv-x="730" 
d="M395 -9q-155 0 -244.5 98t-89.5 264v8q0 159 95 262t241 103q117 0 197.5 -61t92.5 -173h-86q-15 83 -63.5 124t-139.5 41q-111 0 -179 -80.5t-68 -214.5v-8q0 -137 65.5 -214.5t180.5 -77.5q89 0 145.5 44.5t70.5 130.5h81q-18 -121 -97 -183.5t-202 -62.5z" />
    <glyph glyph-name="uni0422" unicode="&#x422;" horiz-adv-x="561" 
d="M243 644h-208v71h503v-71h-208v-644h-87v644z" />
    <glyph glyph-name="uni0423" unicode="&#x423;" horiz-adv-x="588" 
d="M131 -8q-21 0 -30 4l-9 4v79l9 -2q14 -2 30 -2q43 0 73 22t54 72l-238 546h91l191 -446l194 446h82l-241 -546q-37 -86 -82.5 -131.5t-123.5 -45.5z" />
    <glyph glyph-name="uni0424" unicode="&#x424;" horiz-adv-x="821" 
d="M453 623q147 -4 233 -65.5t86 -193.5v-8q-4 -134 -90 -198t-229 -66v-102h-85v102q-146 2 -232.5 64.5t-86.5 194.5v5q1 92 45 152.5t112.5 86t161.5 28.5v102h85v-102zM453 158q52 1 90 10t71 30.5t50.5 61t18.5 97.5v8q0 102 -60 146t-170 48v-401zM368 557
q-53 -2 -90.5 -11t-70.5 -30.5t-50.5 -61.5t-18.5 -99v-5q0 -189 230 -194v401z" />
    <glyph glyph-name="uni0425" unicode="&#x425;" horiz-adv-x="657" 
d="M287 367l-220 348h96l178 -281l177 281h89l-222 -348l233 -367h-98l-191 301l-191 -301h-87z" />
    <glyph glyph-name="uni0426" unicode="&#x426;" horiz-adv-x="730" 
d="M638 -130l-5 130h-543v715h87v-642h366v642h87v-642h80v-203h-72z" />
    <glyph glyph-name="uni0427" unicode="&#x427;" horiz-adv-x="672" 
d="M495 0v346q-23 -20 -52 -33q-70 -32 -145 -32q-108 0 -171 66t-63 190v178h87v-187q0 -88 39 -133.5t114 -45.5q88 0 150 42q27 19 41 43v281h87v-715h-87z" />
    <glyph glyph-name="uni0428" unicode="&#x428;" horiz-adv-x="973" 
d="M90 715h87v-642h266v642h87v-642h266v642h87v-715h-793v715z" />
    <glyph glyph-name="uni0429" unicode="&#x429;" horiz-adv-x="983" 
d="M891 -130l-5 130h-796v715h87v-642h266v642h87v-642h266v642h87v-642h80v-203h-72z" />
    <glyph glyph-name="uni042A" unicode="&#x42a;" horiz-adv-x="716" 
d="M225 642h-196v73h283v-291h116q111 0 180.5 -50t69.5 -157v-4q0 -105 -70.5 -159t-179.5 -54h-203v642zM434 70q157 0 157 143v4q0 138 -157 138h-122v-285h122z" />
    <glyph glyph-name="uni042B" unicode="&#x42b;" horiz-adv-x="805" 
d="M715 0h-87v715h87v-715zM90 715h87v-291h111q111 0 180.5 -50t69.5 -157v-4q0 -105 -70.5 -159t-179.5 -54h-198v715zM294 70q157 0 157 143v4q0 138 -157 138h-117v-285h117z" />
    <glyph glyph-name="uni042C" unicode="&#x42c;" horiz-adv-x="581" 
d="M90 715h87v-291h116q111 0 180.5 -50t69.5 -157v-4q0 -105 -70.5 -159t-179.5 -54h-203v715zM299 70q157 0 157 143v4q0 138 -157 138h-122v-285h122z" />
    <glyph glyph-name="uni042D" unicode="&#x42d;" horiz-adv-x="730" 
d="M339 -9q-118 0 -201.5 61t-95.5 173h86q27 -165 210 -165q106 0 173 73.5t73 196.5h-347v71h347q-9 121 -71 187.5t-169 66.5q-89 0 -143 -44t-68 -131h-81q18 122 95 184t199 62q154 0 241.5 -98t87.5 -264v-8q0 -159 -95 -262t-241 -103z" />
    <glyph glyph-name="uni042E" unicode="&#x42e;" horiz-adv-x="1028" 
d="M636 -9q-146 0 -238.5 92.5t-104.5 234.5h-116v-318h-87v715h87v-324h116q8 145 101.5 239t239.5 94q154 0 246.5 -103t92.5 -258v-8q0 -156 -92.5 -260t-244.5 -104zM636 63q117 0 182 80t65 213v8q0 126 -65 208t-184 82q-121 0 -186.5 -80t-65.5 -212v-8
q0 -129 71 -210t183 -81z" />
    <glyph glyph-name="uni042F" unicode="&#x42f;" horiz-adv-x="626" 
d="M327 645q-78 0 -117.5 -28.5t-39.5 -100.5v-4q0 -132 157 -132h122v265h-122zM118 0h-98l234 317q-171 31 -171 195v4q0 105 69 152t181 47h203v-715h-87v311h-105z" />
    <glyph glyph-name="uni0430" unicode="&#x430;" horiz-adv-x="540" 
d="M221 -9q-77 0 -125.5 38.5t-48.5 115.5q0 43 21.5 75.5t59.5 51t83 27t98 8.5h75v38q0 63 -26 90.5t-86 27.5q-108 0 -120 -94h-83q8 84 65.5 123.5t141.5 39.5q191 0 191 -187v-345h-83v66q-60 -75 -163 -75zM229 57q68 0 111.5 33.5t43.5 92.5v65h-72q-182 0 -182 -103
q0 -88 99 -88z" />
    <glyph glyph-name="uni0431" unicode="&#x431;" 
d="M309 -9q-118 0 -187 76t-69 231v32q0 74 6 131.5t25 116t50 97.5t84.5 65t126.5 30l20 1q110 6 149 22l11 -70q-51 -22 -159 -27l-15 -1q-121 -6 -172.5 -78.5t-60.5 -224.5h4q27 55 80.5 87.5t124.5 32.5q109 0 174.5 -70.5t65.5 -182.5v-4q0 -121 -72.5 -192.5
t-185.5 -71.5zM310 60q80 0 125.5 50.5t45.5 143.5v2q0 87 -41.5 137t-120.5 50q-83 0 -131.5 -52t-48.5 -142v-2q0 -85 45.5 -136t125.5 -51z" />
    <glyph glyph-name="uni0432" unicode="&#x432;" horiz-adv-x="524" 
d="M84 523h183q184 0 184 -133v-3q0 -38 -21 -69.5t-63 -42.5q109 -24 109 -118v-3q0 -76 -49.5 -115t-137.5 -39h-205v523zM167 457v-155h100q52 0 74.5 19t22.5 62v3q0 40 -23.5 55.5t-74.5 15.5h-99zM167 236v-170h114q55 0 81.5 19.5t26.5 63.5v3q0 44 -26.5 64
t-81.5 20h-114z" />
    <glyph glyph-name="uni0433" unicode="&#x433;" horiz-adv-x="446" 
d="M167 453v-453h-83v523h332v-70h-249z" />
    <glyph glyph-name="uni0434" unicode="&#x434;" horiz-adv-x="578" 
d="M186 202q-11 -92 -34 -132h245v385h-192q-5 -122 -19 -253zM82 -127h-67v197h37q28 7 39 40.5t19 96.5q9 81 17 204q4 55 6 112h345v-453h80v-197h-67l-6 127h-397z" />
    <glyph glyph-name="uni0435" unicode="&#x435;" horiz-adv-x="568" 
d="M304 -9q-112 0 -182.5 73t-70.5 192v8q0 118 68.5 193t176.5 75q100 0 167.5 -64.5t67.5 -195.5v-27h-394q6 -185 168 -185q123 0 139 91h83q-14 -78 -73 -119t-150 -41zM446 312q-11 151 -150 151q-63 0 -104 -40t-52 -111h306z" />
    <glyph glyph-name="uni0436" unicode="&#x436;" horiz-adv-x="709" 
d="M314 269l-202 -269h-93l213 278l-194 245h89l187 -246v246h81v-246l187 246h90l-194 -245l213 -278h-94l-202 269v-269h-81v269z" />
    <glyph glyph-name="uni0437" unicode="&#x437;" horiz-adv-x="494" 
d="M421 387q0 -39 -22.5 -71.5t-63.5 -40.5q51 -9 81 -39t30 -79v-3q0 -73 -53.5 -118t-145.5 -45q-95 0 -148.5 44.5t-57.5 125.5h81q6 -50 34.5 -75.5t90.5 -25.5q112 0 112 89v3q0 44 -26.5 64t-81.5 20h-79v66h65q52 0 74.5 19t22.5 62v3q0 77 -90 77q-87 0 -104 -82
h-80q9 79 60.5 115t128.5 36q74 0 123 -37.5t49 -104.5v-3z" />
    <glyph glyph-name="uni0438" unicode="&#x438;" horiz-adv-x="591" 
d="M84 0v523h83v-403l267 403h83v-523h-83v403l-267 -403h-83z" />
    <glyph glyph-name="uni0439" unicode="&#x439;" horiz-adv-x="591" 
d="M299 619q-54 0 -92 37.5t-40 94.5h72q6 -74 60 -74q59 0 66 74h70q-4 -57 -42.5 -94.5t-93.5 -37.5zM84 0v523h83v-403l267 403h83v-523h-83v403l-267 -403h-83z" />
    <glyph glyph-name="uni043A" unicode="&#x43a;" horiz-adv-x="516" 
d="M167 267v-267h-83v523h83v-244l217 244h97l-224 -246l243 -277h-101z" />
    <glyph glyph-name="uni043B" unicode="&#x43b;" horiz-adv-x="552" 
d="M184 202q-9 -108 -38 -157.5t-91 -49.5q-13 0 -27 2l-8 3v79l7 -2q10 -2 21 -2q16 0 26.5 9.5t17 30.5t9.5 39.5t7 52.5q4 36 12 204l3 112h345v-523h-83v453h-188q-9 -216 -13 -251z" />
    <glyph glyph-name="uni043C" unicode="&#x43c;" horiz-adv-x="703" 
d="M154 441v-441h-69v523h117l149 -393l153 393h114v-523h-82v441l-173 -441h-38z" />
    <glyph glyph-name="uni043D" unicode="&#x43d;" horiz-adv-x="591" 
d="M424 233h-257v-233h-83v523h83v-220h257v220h83v-523h-83v233z" />
    <glyph glyph-name="uni043E" unicode="&#x43e;" horiz-adv-x="604" 
d="M308 60q78 0 124.5 54t46.5 143v7q0 91 -46.5 145t-124.5 54q-79 0 -125 -54t-46 -144v-8q0 -91 45.5 -144t125.5 -53zM307 -9q-111 0 -183.5 75.5t-72.5 190.5v8q0 117 72.5 192t184.5 75t184.5 -74.5t72.5 -191.5v-8q0 -118 -73 -192.5t-185 -74.5z" />
    <glyph glyph-name="uni043F" unicode="&#x43f;" horiz-adv-x="581" 
d="M414 453h-247v-453h-83v523h413v-523h-83v453z" />
    <glyph glyph-name="uni0440" unicode="&#x440;" horiz-adv-x="627" 
d="M90 523h83v-88q23 40 72 68.5t105 28.5q105 0 171.5 -71t66.5 -192v-8q0 -121 -65.5 -195.5t-172.5 -74.5q-120 0 -177 95v-268h-83v705zM342 60q78 0 119 50.5t41 146.5v8q0 95 -45.5 146.5t-115.5 51.5q-76 0 -123.5 -50.5t-47.5 -147.5v-8q0 -97 46.5 -147t125.5 -50z
" />
    <glyph glyph-name="uni0441" unicode="&#x441;" horiz-adv-x="570" 
d="M307 -9q-112 0 -184 72.5t-72 192.5v8q0 118 73.5 193t180.5 75q90 0 153 -44.5t74 -138.5h-82q-18 114 -145 114q-73 0 -120.5 -54.5t-47.5 -144.5v-8q0 -94 46.5 -145t124.5 -51q59 0 101.5 33.5t48.5 94.5h77q-8 -86 -71.5 -141.5t-156.5 -55.5z" />
    <glyph glyph-name="uni0442" unicode="&#x442;" horiz-adv-x="481" 
d="M451 453h-169v-453h-83v453h-169v70h421v-70z" />
    <glyph glyph-name="uni0443" unicode="&#x443;" horiz-adv-x="529" 
d="M236 54l-205 469h89l160 -375l145 375h85l-289 -705h-84z" />
    <glyph glyph-name="uni0444" unicode="&#x444;" horiz-adv-x="708" 
d="M395 531q117 -6 192.5 -75t75.5 -190v-8q0 -122 -75 -191t-193 -75v-174h-82v174q-117 6 -192.5 75t-75.5 190v8q0 122 75 191t193 75v242h82v-242zM313 468q-81 -4 -132 -56.5t-51 -145.5v-7q0 -95 51 -148t132 -55v412zM395 55q81 2 132 55.5t51 146.5v7
q0 96 -50.5 147.5t-132.5 55.5v-412z" />
    <glyph glyph-name="uni0445" unicode="&#x445;" horiz-adv-x="528" 
d="M221 269l-175 254h97l128 -190l127 190h90l-173 -248l191 -275h-98l-141 211l-144 -211h-89z" />
    <glyph glyph-name="uni0446" unicode="&#x446;" horiz-adv-x="597" 
d="M510 -127l-6 127h-420v523h83v-453h247v453h83v-453h80v-197h-67z" />
    <glyph glyph-name="uni0447" unicode="&#x447;" horiz-adv-x="556" 
d="M389 0v244q-54 -58 -150 -58q-77 0 -126 49.5t-49 151.5v136h83v-132q0 -133 114 -133q85 0 128 58v207h83v-523h-83z" />
    <glyph glyph-name="uni0448" unicode="&#x448;" horiz-adv-x="811" 
d="M84 523h83v-453h197v453h83v-453h197v453h83v-523h-643v523z" />
    <glyph glyph-name="uni0449" unicode="&#x449;" horiz-adv-x="827" 
d="M740 -127l-6 127h-650v523h83v-453h197v453h83v-453h197v453h83v-453h80v-197h-67z" />
    <glyph glyph-name="uni044A" unicode="&#x44a;" horiz-adv-x="589" 
d="M179 453h-149v70h232v-183h93q89 0 144.5 -40t55.5 -126v-3q0 -85 -56 -128t-144 -43h-176v453zM360 66q59 0 85.5 25.5t26.5 79.5v3q0 50 -26 75.5t-86 25.5h-98v-209h98z" />
    <glyph glyph-name="uni044B" unicode="&#x44b;" horiz-adv-x="701" 
d="M534 523h83v-523h-83v523zM84 523h83v-183h93q89 0 144.5 -40t55.5 -126v-3q0 -85 -56 -128t-144 -43h-176v523zM265 66q59 0 85.5 25.5t26.5 79.5v3q0 50 -26 75.5t-86 25.5h-98v-209h98z" />
    <glyph glyph-name="uni044C" unicode="&#x44c;" horiz-adv-x="494" 
d="M84 523h83v-183h93q88 0 144 -43t56 -128v-3q0 -86 -55.5 -126t-144.5 -40h-176v523zM265 65q60 0 86 25.5t26 75.5v3q0 54 -26.5 79.5t-85.5 25.5h-98v-209h98z" />
    <glyph glyph-name="uni044D" unicode="&#x44d;" horiz-adv-x="570" 
d="M277 -9q-94 0 -158 44.5t-75 138.5h82q18 -114 151 -114q64 0 108.5 47.5t52.5 127.5h-265v65h265q-8 80 -52.5 121.5t-117.5 41.5q-58 0 -98.5 -33.5t-51.5 -94.5h-77q8 86 71.5 141.5t156.5 55.5q116 0 186 -70t70 -190v-8q0 -118 -73 -195.5t-175 -77.5z" />
    <glyph glyph-name="uni044E" unicode="&#x44e;" horiz-adv-x="784" 
d="M491 -9q-100 0 -165.5 62t-77.5 163q-2 14 -2 17h-79v-233h-83v523h83v-220h80q12 104 77.5 166.5t167.5 62.5q111 0 179 -74t68 -192v-8q0 -119 -68.5 -193t-179.5 -74zM492 60q77 0 119 53t42 144v7q0 92 -42 145.5t-119 53.5q-78 0 -119.5 -53t-41.5 -145v-8
q0 -92 41 -144.5t120 -52.5z" />
    <glyph glyph-name="uni044F" unicode="&#x44f;" horiz-adv-x="523" 
d="M258 457q-112 0 -112 -95v-3q0 -45 26 -68t86 -23h98v189h-98zM120 0h-95l159 219q-121 25 -121 140v3q0 82 56 121.5t144 39.5h176v-523h-83v205h-90z" />
    <glyph glyph-name="uni0451" unicode="&#x451;" horiz-adv-x="568" 
d="M304 -9q-112 0 -182.5 73t-70.5 192v8q0 118 68.5 193t176.5 75q100 0 167.5 -64.5t67.5 -195.5v-27h-394q6 -185 168 -185q123 0 139 91h83q-14 -78 -73 -119t-150 -41zM446 312q-11 151 -150 151q-63 0 -104 -40t-52 -111h306zM202 634q-22 0 -37.5 15.5t-15.5 37.5
t15.5 37.5t37.5 15.5t37.5 -15.5t15.5 -37.5t-15.5 -37.5t-37.5 -15.5zM390 634q-22 0 -37.5 15.5t-15.5 37.5t15.5 37.5t37.5 15.5t37.5 -15.5t15.5 -37.5t-15.5 -37.5t-37.5 -15.5z" />
    <glyph glyph-name="uni0452" unicode="&#x452;" horiz-adv-x="598" 
d="M436 327q0 69 -30 101t-93 32q-61 0 -103.5 -38t-42.5 -105v-317h-83v615h-75v61h75v97h83v-97h178v-61h-178v-175q20 40 63 66t105 26q86 0 135 -51t49 -160v-354q0 -77 -37.5 -116t-122.5 -42v70q43 4 60 23.5t17 57.5v367z" />
    <glyph glyph-name="uni0453" unicode="&#x453;" horiz-adv-x="446" 
d="M167 453v-453h-83v523h332v-70h-249zM279 760h104l-104 -147h-62z" />
    <glyph glyph-name="uni0454" unicode="&#x454;" horiz-adv-x="570" 
d="M529 188q-8 -86 -71.5 -141.5t-156.5 -55.5q-112 0 -184 72.5t-72 192.5v8q0 118 73.5 193t180.5 75q90 0 153 -44.5t74 -138.5h-82q-18 114 -145 114q-64 0 -109.5 -43.5t-56.5 -118.5h263v-65h-264q5 -85 50.5 -130.5t119.5 -45.5q59 0 101.5 33.5t48.5 94.5h77z" />
    <glyph glyph-name="uni0455" unicode="&#x455;" horiz-adv-x="480" 
d="M252 -9q-94 0 -147.5 44.5t-57.5 125.5h81q6 -50 34.5 -75.5t88.5 -25.5q59 0 86.5 20.5t27.5 62.5q0 39 -28.5 57.5t-93.5 30.5q-102 18 -142 52t-40 102t54.5 107.5t122.5 39.5q77 0 128.5 -36t60.5 -115h-80q-9 43 -34.5 62.5t-75.5 19.5q-45 0 -72 -20.5t-27 -54.5
q0 -35 25.5 -53t96.5 -30q39 -8 61.5 -14t49 -17.5t40.5 -27t23.5 -39.5t9.5 -57q0 -74 -49 -116.5t-143 -42.5z" />
    <glyph glyph-name="uni0456" unicode="&#x456;" horiz-adv-x="255" 
d="M92 523h83v-523h-83v523zM132 632q-23 0 -39 16t-16 39t16 39t39 16t39 -16t16 -39t-16 -39t-39 -16z" />
    <glyph glyph-name="uni0457" unicode="&#x457;" horiz-adv-x="255" 
d="M43 634q-22 0 -37.5 15.5t-15.5 37.5t15.5 37.5t37.5 15.5t37.5 -15.5t15.5 -37.5t-15.5 -37.5t-37.5 -15.5zM223 634q-22 0 -37.5 15.5t-15.5 37.5t15.5 37.5t37.5 15.5t37.5 -15.5t15.5 -37.5t-15.5 -37.5t-37.5 -15.5zM92 523h83v-523h-83v523z" />
    <glyph glyph-name="uni0458" unicode="&#x458;" horiz-adv-x="255" 
d="M15 -121q43 4 60 23.5t17 57.5v563h83v-556q0 -77 -37.5 -116t-122.5 -42v70zM132 632q-23 0 -39 16t-16 39t16 39t39 16t39 -16t16 -39t-16 -39t-39 -16z" />
    <glyph glyph-name="uni0459" unicode="&#x459;" horiz-adv-x="774" 
d="M374 453h-177q-9 -216 -13 -251q-9 -108 -38 -157.5t-91 -49.5q-13 0 -27 2l-8 3v79l7 -2q10 -2 21 -2q16 0 26.5 9.5t17 30.5t9.5 39.5t7 52.5q4 36 12 204l3 112h334v-183h83q89 0 144.5 -40t55.5 -126v-3q0 -85 -56 -128t-144 -43h-166v453zM545 66q59 0 85.5 25.5
t26.5 79.5v3q0 50 -26 75.5t-86 25.5h-88v-209h88z" />
    <glyph glyph-name="uni045A" unicode="&#x45a;" horiz-adv-x="814" 
d="M585 66q59 0 85.5 25.5t26.5 79.5v3q0 50 -26 75.5t-86 25.5h-88v-209h88zM414 233h-247v-233h-83v523h83v-220h247v220h83v-183h83q89 0 144.5 -40t55.5 -126v-3q0 -85 -56 -128t-144 -43h-166v233z" />
    <glyph glyph-name="uni045B" unicode="&#x45b;" horiz-adv-x="598" 
d="M9 676h75v97h83v-97h178v-61h-178v-175q20 40 63 66t105 26q86 0 135 -51t49 -160v-321h-83v327q0 69 -30 101t-93 32q-61 0 -103.5 -38t-42.5 -105v-317h-83v615h-75v61z" />
    <glyph glyph-name="uni045C" unicode="&#x45c;" horiz-adv-x="516" 
d="M309 760h104l-104 -147h-62zM167 267v-267h-83v523h83v-244l217 244h97l-224 -246l243 -277h-101z" />
    <glyph glyph-name="uni045D" unicode="&#x45d;" horiz-adv-x="591" 
d="M84 0v523h83v-403l267 403h83v-523h-83v403l-267 -403h-83zM169 760h104l62 -147h-62z" />
    <glyph glyph-name="uni045E" unicode="&#x45e;" horiz-adv-x="529" 
d="M274 619q-54 0 -92 37.5t-40 94.5h72q6 -74 60 -74q59 0 66 74h70q-4 -57 -42.5 -94.5t-93.5 -37.5zM236 54l-205 469h89l160 -375l145 375h85l-289 -705h-84z" />
    <glyph glyph-name="uni045F" unicode="&#x45f;" horiz-adv-x="581" 
d="M84 0v523h83v-453h247v453h83v-523h-171l-2 -127h-66l-3 127h-171z" />
    <glyph glyph-name="uni0490" unicode="&#x490;" horiz-adv-x="536" 
d="M177 642v-642h-87v715h331l5 134h72v-207h-321z" />
    <glyph glyph-name="uni0491" unicode="&#x491;" horiz-adv-x="429" 
d="M167 453v-453h-83v523h239l6 134h67v-204h-229z" />
    <glyph glyph-name="Wgrave" unicode="&#x1e80;" horiz-adv-x="928" 
d="M40 715h89l145 -577l168 577h62l168 -579l147 579h81l-186 -715h-80l-162 565l-167 -565h-79zM350 898h104l56 -127h-62z" />
    <glyph glyph-name="wgrave" unicode="&#x1e81;" horiz-adv-x="794" 
d="M34 523h90l122 -421l127 421h72l119 -421l123 421h85l-163 -523h-92l-109 392l-122 -392h-91zM283 760h104l62 -147h-62z" />
    <glyph glyph-name="Wacute" unicode="&#x1e82;" horiz-adv-x="928" 
d="M40 715h89l145 -577l168 577h62l168 -579l147 579h81l-186 -715h-80l-162 565l-167 -565h-79zM502 898h104l-98 -127h-62z" />
    <glyph glyph-name="wacute" unicode="&#x1e83;" horiz-adv-x="794" 
d="M34 523h90l122 -421l127 421h72l119 -421l123 421h85l-163 -523h-92l-109 392l-122 -392h-91zM438 760h104l-104 -147h-62z" />
    <glyph glyph-name="Wdieresis" unicode="&#x1e84;" horiz-adv-x="928" 
d="M40 715h89l145 -577l168 577h62l168 -579l147 579h81l-186 -715h-80l-162 565l-167 -565h-79zM371 789q-22 0 -37.5 15.5t-15.5 37.5t15.5 37.5t37.5 15.5t37.5 -15.5t15.5 -37.5t-15.5 -37.5t-37.5 -15.5zM574 789q-22 0 -37.5 15.5t-15.5 37.5t15.5 37.5t37.5 15.5
t37.5 -15.5t15.5 -37.5t-15.5 -37.5t-37.5 -15.5z" />
    <glyph glyph-name="wdieresis" unicode="&#x1e85;" horiz-adv-x="794" 
d="M34 523h90l122 -421l127 421h72l119 -421l123 421h85l-163 -523h-92l-109 392l-122 -392h-91zM314 634q-22 0 -37.5 15.5t-15.5 37.5t15.5 37.5t37.5 15.5t37.5 -15.5t15.5 -37.5t-15.5 -37.5t-37.5 -15.5zM502 634q-22 0 -37.5 15.5t-15.5 37.5t15.5 37.5t37.5 15.5
t37.5 -15.5t15.5 -37.5t-15.5 -37.5t-37.5 -15.5z" />
    <glyph glyph-name="Ygrave" unicode="&#x1ef2;" horiz-adv-x="598" 
d="M268 312l-239 403h98l187 -332l180 332h87l-226 -404v-311h-87v312zM192 898h104l56 -127h-62z" />
    <glyph glyph-name="ygrave" unicode="&#x1ef3;" horiz-adv-x="529" 
d="M236 54l-205 469h89l160 -375l145 375h85l-289 -705h-84zM145 760h104l62 -147h-62z" />
    <glyph glyph-name="uni2009" unicode="&#x2009;" horiz-adv-x="110" 
 />
    <glyph glyph-name="endash" unicode="&#x2013;" horiz-adv-x="538" 
d="M51 311h436v-70h-436v70z" />
    <glyph glyph-name="emdash" unicode="&#x2014;" horiz-adv-x="897" 
d="M51 311h795v-70h-795v70z" />
    <glyph glyph-name="quoteleft" unicode="&#x2018;" horiz-adv-x="267" 
d="M46 524l117 202l51 -26l-89 -212z" />
    <glyph glyph-name="quoteright" unicode="&#x2019;" horiz-adv-x="267" 
d="M53 514l89 212l79 -36l-117 -202z" />
    <glyph glyph-name="quotesinglbase" unicode="&#x201a;" horiz-adv-x="267" 
d="M53 -88l89 212l79 -36l-117 -202z" />
    <glyph glyph-name="quotedblleft" unicode="&#x201c;" horiz-adv-x="444" 
d="M46 524l117 202l51 -26l-89 -212zM223 524l117 202l51 -26l-89 -212z" />
    <glyph glyph-name="quotedblright" unicode="&#x201d;" horiz-adv-x="444" 
d="M53 514l89 212l79 -36l-117 -202zM230 514l89 212l79 -36l-117 -202z" />
    <glyph glyph-name="quotedblbase" unicode="&#x201e;" horiz-adv-x="444" 
d="M53 -88l89 212l79 -36l-117 -202zM230 -88l89 212l79 -36l-117 -202z" />
    <glyph glyph-name="dagger" unicode="&#x2020;" horiz-adv-x="386" 
d="M156 519h-116v67h116v129h75v-129h115v-67h-115v-306h-75v306z" />
    <glyph glyph-name="daggerdbl" unicode="&#x2021;" horiz-adv-x="386" 
d="M156 519h-116v67h116v129h75v-129h115v-67h-115v-110h115v-67h-115v-129h-75v129h-116v67h116v110z" />
    <glyph glyph-name="bullet" unicode="&#x2022;" horiz-adv-x="344" 
d="M172 190q-49 0 -82.5 34t-33.5 82t33.5 82t82.5 34q50 0 83 -33.5t33 -82.5t-33 -82.5t-83 -33.5z" />
    <glyph glyph-name="ellipsis" unicode="&#x2026;" horiz-adv-x="818" 
d="M147 -5q-26 0 -45 18.5t-19 45.5t19 45.5t45 18.5t45 -18.5t19 -45.5t-19 -45.5t-45 -18.5zM409 -5q-26 0 -45 18.5t-19 45.5t19 45.5t45 18.5t45 -18.5t19 -45.5t-19 -45.5t-45 -18.5zM671 -5q-26 0 -45 18.5t-19 45.5t19 45.5t45 18.5t45 -18.5t19 -45.5t-19 -45.5
t-45 -18.5z" />
    <glyph glyph-name="perthousand" unicode="&#x2030;" horiz-adv-x="1138" 
d="M199 459q39 0 61.5 26t22.5 73q0 45 -23 72t-61 27q-39 0 -61.5 -26.5t-22.5 -73.5t22.5 -72.5t61.5 -25.5zM199 395q-63 0 -111 46.5t-48 114.5q0 70 47 117.5t112 47.5t112 -47t47 -116q0 -70 -47 -116.5t-112 -46.5zM569 715h76l-437 -715h-76zM571 56q39 0 61.5 26
t22.5 73q0 45 -23 72t-61 27q-39 0 -61.5 -26.5t-22.5 -73.5t22.5 -72.5t61.5 -25.5zM571 -8q-63 0 -111 46.5t-48 114.5q0 71 47 118t112 47t112 -47t47 -116q0 -70 -47 -116.5t-112 -46.5zM939 56q39 0 61.5 26t22.5 73q0 45 -23 72t-61 27q-39 0 -61.5 -26.5t-22.5 -73.5
t22.5 -72.5t61.5 -25.5zM939 -8q-63 0 -111 46.5t-48 114.5q0 71 47 118t112 47t112 -47t47 -116q0 -70 -47 -116.5t-112 -46.5z" />
    <glyph glyph-name="uni2032" unicode="&#x2032;" horiz-adv-x="224" 
d="M77 715h90l-55 -245h-60z" />
    <glyph glyph-name="uni2033" unicode="&#x2033;" horiz-adv-x="387" 
d="M77 715h90l-55 -245h-60zM240 715h90l-55 -245h-60z" />
    <glyph glyph-name="guilsinglleft" unicode="&#x2039;" horiz-adv-x="334" 
d="M65 261l130 178h82l-125 -178l125 -178h-82z" />
    <glyph glyph-name="guilsinglright" unicode="&#x203a;" horiz-adv-x="334" 
d="M182 261l-125 178h82l130 -178l-130 -178h-82z" />
    <glyph glyph-name="fraction" unicode="&#x2044;" horiz-adv-x="125" 
d="M283 715h66l-507 -715h-66z" />
    <glyph glyph-name="Euro" unicode="&#x20ac;" horiz-adv-x="686" 
d="M38 452h74q13 120 83 196t184 76q103 0 167.5 -57.5t76.5 -161.5h-82q-11 72 -53.5 111.5t-108.5 39.5q-79 0 -125.5 -54.5t-56.5 -149.5h239l-11 -58h-230v-78h215l-11 -58h-201q10 -94 56 -145t127 -51q70 0 113.5 41.5t55.5 122.5h81q-12 -111 -78.5 -173t-171.5 -62
q-113 0 -183.5 73.5t-85.5 193.5h-74v58h71v78h-71v58z" />
    <glyph glyph-name="uni20B4" unicode="&#x20b4;" horiz-adv-x="600" 
d="M295 -9q-103 0 -167.5 48t-64.5 135q0 60 27 101h-60v58h119q47 30 142 64q22 7 38 14h-299v58h392q23 28 23 88q0 97 -131 97q-71 0 -108.5 -27.5t-49.5 -89.5h-78q10 90 71.5 138.5t164.5 48.5q96 0 155.5 -43.5t59.5 -122.5q0 -54 -22 -89h63v-58h-120
q-47 -32 -143 -66l-31 -12h294v-58h-389q-31 -34 -31 -97q0 -59 39.5 -88t105.5 -29q156 0 176 147h84q-11 -96 -75 -156.5t-185 -60.5z" />
    <glyph glyph-name="uni20B8" unicode="&#x20b8;" horiz-adv-x="561" 
d="M29 657v58h503v-58h-503zM237 514h-208v71h503v-71h-208v-514h-87v514z" />
    <glyph glyph-name="uni20BD" unicode="&#x20bd;" horiz-adv-x="621" 
d="M339 360q77 0 117 36.5t40 105.5v4q0 139 -157 139h-122v-285h122zM217 165v-165h-87v165h-100v58h100v78h-100v58h100v356h203q110 0 180 -51.5t70 -157.5v-4q0 -108 -69.5 -159.5t-180.5 -51.5h-116v-68h243v-58h-243z" />
    <glyph glyph-name="uni2116" unicode="&#x2116;" horiz-adv-x="1083" 
d="M867 333q-82 0 -135 54.5t-53 137.5v6q0 86 53.5 139.5t135.5 53.5t135 -53.5t53 -138.5v-5q0 -86 -53.5 -140t-135.5 -54zM868 397q51 0 79.5 34.5t28.5 94.5v5q0 60 -28.5 95t-79.5 35t-80 -35t-29 -95v-5q0 -60 29 -94.5t80 -34.5zM90 715h113l308 -587v587h83v-715
h-100l-321 609v-609h-83v715zM691 267h353v-66h-353v66z" />
    <glyph glyph-name="trademark" unicode="&#x2122;" horiz-adv-x="728" 
d="M348 715h77l90 -226l88 226h78v-322h-56v251l-103 -251h-19l-104 251v-251h-51v322zM138 671h-98v44h251v-44h-97v-278h-56v278z" />
    <glyph glyph-name="Omega" unicode="&#x2126;" horiz-adv-x="817" 
d="M145 363q0 -208 202 -327v-36h-290v67h148q-61 37 -105.5 116.5t-44.5 178.5v8q0 89 39.5 168.5t122.5 132.5t193 53t192 -52.5t121 -131.5t39 -170v-8q0 -107 -44 -182t-105 -113h147v-67h-290v36q202 103 202 327v8q0 42 -9.5 82t-30.5 76.5t-51 64t-74 44t-97 16.5
q-88 0 -149.5 -41.5t-88.5 -104t-27 -137.5v-8z" />
    <glyph glyph-name="onethird" unicode="&#x2153;" horiz-adv-x="735" 
d="M114 649l-81 -54v59l89 61h60v-342h-68v276zM558 715h66l-507 -715h-66zM566 -5q-62 0 -95.5 29.5t-35.5 81.5h61q7 -61 68 -61q63 0 63 54t-60 54h-26v47h25q56 0 56 49q0 21 -13.5 34t-38.5 13q-26 0 -42.5 -14.5t-19.5 -40.5h-61q3 47 36 76t88 29q53 0 84 -26t31 -66
q0 -54 -57 -74q67 -15 67 -82q0 -48 -35 -75.5t-95 -27.5z" />
    <glyph glyph-name="twothirds" unicode="&#x2154;" horiz-adv-x="772" 
d="M17 384l128 136q54 57 54 97q0 23 -13 36.5t-37 13.5q-50 0 -60 -66h-61q3 57 35.5 87.5t87.5 30.5q53 0 83.5 -27.5t30.5 -73.5q0 -58 -66 -122l-73 -72h142v-51h-251v11zM609 715h66l-507 -715h-66zM603 -5q-62 0 -95.5 29.5t-35.5 81.5h61q7 -61 68 -61q63 0 63 54
t-60 54h-26v47h25q56 0 56 49q0 21 -13.5 34t-38.5 13q-26 0 -42.5 -14.5t-19.5 -40.5h-61q3 47 36 76t88 29q53 0 84 -26t31 -66q0 -54 -57 -74q67 -15 67 -82q0 -48 -35 -75.5t-95 -27.5z" />
    <glyph glyph-name="oneeighth" unicode="&#x215b;" horiz-adv-x="726" 
d="M114 649l-81 -54v59l89 61h60v-342h-68v276zM558 715h66l-507 -715h-66zM559 -5q-55 0 -92 26.5t-37 74.5q0 66 63 87q-50 21 -50 71q0 42 34.5 67t82.5 25t82 -25t34 -66q0 -50 -51 -71q64 -24 64 -86q0 -49 -36.5 -76t-93.5 -27zM560 45q28 0 45 15t17 43
q0 26 -17.5 41.5t-44.5 15.5t-44.5 -15.5t-17.5 -42.5t17.5 -42t44.5 -15zM560 203q24 0 38 12.5t14 35.5q0 21 -15 34t-37 13q-24 0 -38.5 -12.5t-14.5 -35.5q0 -22 15.5 -34.5t37.5 -12.5z" />
    <glyph glyph-name="threeeighths" unicode="&#x215c;" horiz-adv-x="756" 
d="M161 368q-62 0 -95.5 29.5t-35.5 81.5h61q7 -61 68 -61q63 0 63 54t-60 54h-26v47h25q56 0 56 49q0 21 -13.5 34t-38.5 13q-26 0 -42.5 -14.5t-19.5 -40.5h-61q3 47 36 76t88 29q53 0 84 -26t31 -66q0 -54 -57 -74q67 -15 67 -82q0 -48 -35 -75.5t-95 -27.5zM600 715h66
l-507 -715h-66zM589 -5q-55 0 -92 26.5t-37 74.5q0 66 63 87q-50 21 -50 71q0 42 34.5 67t82.5 25t82 -25t34 -66q0 -50 -51 -71q64 -24 64 -86q0 -49 -36.5 -76t-93.5 -27zM590 45q28 0 45 15t17 43q0 26 -17.5 41.5t-44.5 15.5t-44.5 -15.5t-17.5 -42.5t17.5 -42t44.5 -15
zM590 203q24 0 38 12.5t14 35.5q0 21 -15 34t-37 13q-24 0 -38.5 -12.5t-14.5 -35.5q0 -22 15.5 -34.5t37.5 -12.5z" />
    <glyph glyph-name="fiveeighths" unicode="&#x215d;" horiz-adv-x="750" 
d="M154 368q-58 0 -89.5 28.5t-34.5 75.5h63q4 -26 17 -39t44 -13q27 0 42.5 18t15.5 49q0 30 -15.5 47.5t-43.5 17.5q-47 0 -70 -29h-36l4 192h210v-52h-159l-1 -92q28 30 75 30q48 0 76.5 -31t28.5 -84q0 -54 -35 -86t-92 -32zM593 715h66l-507 -715h-66zM583 -5
q-55 0 -92 26.5t-37 74.5q0 66 63 87q-50 21 -50 71q0 42 34.5 67t82.5 25t82 -25t34 -66q0 -50 -51 -71q64 -24 64 -86q0 -49 -36.5 -76t-93.5 -27zM584 45q28 0 45 15t17 43q0 26 -17.5 41.5t-44.5 15.5t-44.5 -15.5t-17.5 -42.5t17.5 -42t44.5 -15zM584 203q24 0 38 12.5
t14 35.5q0 21 -15 34t-37 13q-24 0 -38.5 -12.5t-14.5 -35.5q0 -22 15.5 -34.5t37.5 -12.5z" />
    <glyph glyph-name="seveneighths" unicode="&#x215e;" horiz-adv-x="722" 
d="M183 660h-157v55h241v-8l-124 -334h-68zM546 715h66l-507 -715h-66zM555 -5q-55 0 -92 26.5t-37 74.5q0 66 63 87q-50 21 -50 71q0 42 34.5 67t82.5 25t82 -25t34 -66q0 -50 -51 -71q64 -24 64 -86q0 -49 -36.5 -76t-93.5 -27zM556 45q28 0 45 15t17 43q0 26 -17.5 41.5
t-44.5 15.5t-44.5 -15.5t-17.5 -42.5t17.5 -42t44.5 -15zM556 203q24 0 38 12.5t14 35.5q0 21 -15 34t-37 13q-24 0 -38.5 -12.5t-14.5 -35.5q0 -22 15.5 -34.5t37.5 -12.5z" />
    <glyph glyph-name="Delta" unicode="&#x2206;" horiz-adv-x="682" 
d="M41 14l240 701h124l236 -701v-14h-600v14zM143 74h392l-196 581z" />
    <glyph glyph-name="minus" unicode="&#x2212;" horiz-adv-x="531" 
d="M42 377h447v-70h-447v70z" />
    <glyph glyph-name="approxequal" unicode="&#x2248;" horiz-adv-x="510" 
d="M50 166q5 58 35.5 88.5t74.5 30.5q41 0 105 -22t87 -22q17 0 30 11.5t15 34.5h63q-5 -59 -35 -89t-72 -30q-43 0 -107 22t-87 22q-39 0 -46 -46h-63zM50 343q5 58 35.5 88.5t74.5 30.5q41 0 105 -22t87 -22q17 0 30 11.5t15 34.5h63q-5 -59 -35 -89t-72 -30
q-43 0 -107 22t-87 22q-39 0 -46 -46h-63z" />
    <glyph glyph-name="notequal" unicode="&#x2260;" horiz-adv-x="496" 
d="M46 448h215l40 103h76l-40 -103h113v-72h-141l-41 -108h182v-72h-210l-40 -103h-76l40 103h-118v72h146l41 108h-187v72z" />
    <glyph glyph-name="lessequal" unicode="&#x2264;" horiz-adv-x="516" 
d="M59 324v20l384 205v-80l-260 -135l260 -135v-80zM59 70h384v-70h-384v70z" />
    <glyph glyph-name="greaterequal" unicode="&#x2265;" horiz-adv-x="516" 
d="M73 199l260 135l-260 135v80l384 -205v-20l-384 -205v80zM73 70h384v-70h-384v70z" />
    <glyph glyph-name="uni24C5" unicode="&#x24c5;" horiz-adv-x="856" 
d="M310 557h128q147 0 147 -122v-3q0 -61 -38.5 -91t-105.5 -30h-55v-149h-76v395zM438 366q74 0 74 66v3q0 63 -74 63h-52v-132h52zM427 33q131 0 225.5 92.5t94.5 233.5q0 139 -93.5 231t-224.5 92q-134 0 -227 -92t-93 -233t94 -232.5t224 -91.5zM427 -9
q-154 0 -260 105.5t-106 260.5q0 153 107 260t261 107q155 0 260.5 -106t105.5 -259q0 -156 -106.5 -262t-261.5 -106z" />
    <glyph glyph-name="zero.tab" unicode="&#xe44f;" 
d="M310 63q84 0 120.5 53.5t36.5 178.5v130q0 229 -159 229q-82 0 -122 -57.5t-40 -178.5v-125q0 -122 41 -176t123 -54zM310 -9q-115 0 -184 77.5t-69 223.5v125q0 149 67 228t184 79q118 0 182.5 -77t64.5 -223v-130q0 -149 -63.5 -226t-181.5 -77z" />
    <glyph glyph-name="one.tab" unicode="&#xe450;" 
d="M320 627l-205 -164v81l201 171h91v-715h-87v627z" />
    <glyph glyph-name="two.tab" unicode="&#xe451;" 
d="M48 20l284 299q103 109 103 207q0 60 -33.5 94t-94.5 34q-130 0 -151 -159h-81q8 106 69.5 167.5t162.5 61.5q99 0 157.5 -54.5t58.5 -146.5q0 -118 -144 -260l-197 -192h345v-71h-479v20z" />
    <glyph glyph-name="three.tab" unicode="&#xe452;" 
d="M294 -9q-109 0 -174.5 62t-69.5 158h80q14 -150 166 -150q161 0 161 138q0 139 -151 139h-54v73h50q137 0 137 122q0 54 -32.5 87t-95.5 33q-66 0 -107.5 -36.5t-48.5 -98.5h-76q4 86 68.5 146t163.5 60q98 0 155.5 -55.5t57.5 -133.5q0 -110 -116 -156q138 -38 138 -180
q0 -97 -69.5 -152.5t-182.5 -55.5z" />
    <glyph glyph-name="four.tab" unicode="&#xe453;" 
d="M395 150h-348v28l317 537h116v-494h84v-71h-84v-150h-85v150zM395 221v423l-240 -423h240z" />
    <glyph glyph-name="five.tab" unicode="&#xe454;" 
d="M294 -9q-111 0 -170 54.5t-68 147.5h83q12 -65 45.5 -98.5t108.5 -33.5q73 0 115 46t42 127q0 76 -40.5 121.5t-109.5 45.5q-60 0 -99 -17t-70 -52h-32v383h402v-75h-330v-218q53 49 146 49q98 0 160 -64.5t62 -172.5q0 -111 -70 -177t-175 -66z" />
    <glyph glyph-name="six.tab" unicode="&#xe455;" 
d="M314 -9q-257 0 -257 325v17q0 188 76.5 289.5t203.5 101.5q86 0 140.5 -44t68.5 -129h-83q-12 52 -43 77t-89 25q-83 0 -134 -74t-54 -212q58 97 184 97q105 0 169.5 -66.5t64.5 -167.5q0 -108 -67 -173.5t-180 -65.5zM314 59q70 0 114 46t44 121q0 78 -43 124t-116 46
q-72 0 -118 -44t-46 -114q0 -85 45.5 -132t119.5 -47z" />
    <glyph glyph-name="seven.tab" unicode="&#xe456;" 
d="M435 645h-359v70h471v-12l-286 -703h-89z" />
    <glyph glyph-name="eight.tab" unicode="&#xe457;" 
d="M307 -9q-61 0 -116 22.5t-93 72.5t-38 117q0 69 37 116t98 69q-108 43 -108 150q0 82 66.5 134t153.5 52t153 -51.5t66 -132.5q0 -103 -110 -151q137 -51 137 -184q0 -101 -73.5 -157.5t-172.5 -56.5zM307 62q69 0 113 38.5t44 107.5q0 67 -44.5 104.5t-110.5 37.5
q-68 0 -114 -37.5t-46 -106.5q0 -67 46 -105.5t112 -38.5zM310 419q58 0 93 32t35 88q0 51 -37 84t-94 33q-58 0 -95 -32t-37 -87q0 -54 39 -86t96 -32z" />
    <glyph glyph-name="nine.tab" unicode="&#xe458;" 
d="M286 -8q-98 0 -157 48t-73 136h84q13 -56 47.5 -84.5t100.5 -28.5q87 0 134 71t49 213q-27 -45 -75 -70t-110 -25q-104 0 -169.5 66t-65.5 168q0 108 67 173.5t180 65.5q127 0 192 -82t65 -238v-45q0 -179 -69.5 -273.5t-199.5 -94.5zM299 320q72 0 118 43t46 112
q0 86 -45.5 134t-119.5 48q-70 0 -114 -46t-44 -121q0 -78 43 -124t116 -46z" />
    <glyph glyph-name="cent.tab" unicode="&#xe459;" 
d="M291 -7q-99 10 -160.5 81t-61.5 182v8q0 109 63 181.5t159 84.5v99h59v-99q80 -6 134.5 -50.5t65.5 -130.5h-82q-8 51 -39.5 78.5t-78.5 33.5v-399q50 6 85 39t41 87h77q-8 -79 -63.5 -133t-139.5 -62v-128h-59v128zM155 256q0 -84 35.5 -133t100.5 -61v398
q-61 -11 -98.5 -63.5t-37.5 -132.5v-8z" />
    <glyph glyph-name="dollar.tab" unicode="&#xe45a;" 
d="M278 -8q-220 14 -240 226h84q5 -34 12 -56.5t23.5 -46.5t46.5 -37.5t74 -17.5v278q-105 19 -158 63t-53 129q0 78 59 132.5t152 60.5v90h59v-91q91 -8 144.5 -58t63.5 -137h-78q-11 58 -42.5 88.5t-87.5 38.5v-250q117 -21 170 -65t53 -137q0 -86 -62.5 -145t-160.5 -65
v-127h-59v127zM477 196q0 56 -30 85t-110 47v-268q61 6 100.5 43.5t39.5 92.5zM146 538q0 -52 26.5 -79.5t105.5 -44.5v241q-62 -5 -97 -37t-35 -80z" />
    <glyph glyph-name="Euro.tab" unicode="&#xe45b;" 
d="M21 452h61q8 127 72.5 199.5t174.5 72.5q93 0 149 -56t68 -160h-82q-23 148 -135 148q-149 0 -160 -204h220l-11 -58h-210v-78h195l-11 -58h-183q5 -100 44.5 -148t117.5 -48q63 0 98.5 39.5t47.5 120.5h81q-12 -111 -72 -171t-155 -60q-110 0 -175 69t-73 198h-62v58h61
v78h-61v58z" />
    <glyph glyph-name="a.alt" unicode="&#xe4c0;" horiz-adv-x="627" 
d="M282 -9q-98 0 -164.5 70.5t-66.5 189.5v8q0 118 69.5 195.5t169.5 77.5q109 0 164 -91v82h83v-523h-83v88q-22 -39 -72 -68t-100 -29zM291 60q71 0 118.5 51t47.5 147v8q0 98 -42.5 147.5t-116.5 49.5q-73 0 -117 -53t-44 -147v-8q0 -94 44 -144.5t110 -50.5z" />
    <glyph glyph-name="t.alt" unicode="&#xe4d3;" horiz-adv-x="350" 
d="M115 453h-82v70h82v119h83v-119h115v-70h-115v-453h-83v453z" />
    <glyph glyph-name="f_i" unicode="&#xfb01;" horiz-adv-x="597" 
d="M108 453h-75v70h75v85q0 168 154 168q39 0 57 -8v-70q-19 9 -54 9q-74 0 -74 -90v-94h128v-70h-128v-453h-83v453zM434 523h83v-523h-83v523zM474 632q-23 0 -39 16t-16 39t16 39t39 16t39 -16t16 -39t-16 -39t-39 -16z" />
    <glyph glyph-name="f_l" unicode="&#xfb02;" horiz-adv-x="598" 
d="M108 453h-75v70h75v85q0 168 154 168q39 0 57 -8v-70q-19 9 -54 9q-74 0 -74 -90v-94h128v-70h-128v-453h-83v453zM434 773h84v-773h-84v773z" />
    <glyph glyph-name="nine.den" horiz-adv-x="333" 
d="M157 -5q-107 0 -120 95h63q11 -43 57 -43q73 0 74 114q-28 -43 -83 -43q-51 0 -82.5 30t-31.5 81q0 54 34 86t94 32q68 0 102 -41.5t34 -118.5v-17q0 -85 -36 -130t-105 -45zM162 165q29 0 46.5 17.5t17.5 44.5q0 33 -17.5 52t-46.5 19q-28 0 -45 -18.5t-17 -48.5
t16.5 -48t45.5 -18z" />
    <glyph glyph-name="three.sup" horiz-adv-x="324" 
d="M158 426q-62 0 -95.5 29.5t-35.5 81.5h61q7 -61 68 -61q63 0 63 54t-60 54h-26v47h25q56 0 56 49q0 21 -13.5 34t-38.5 13q-26 0 -42.5 -14.5t-19.5 -40.5h-61q3 47 36 76t88 29q53 0 84 -26t31 -66q0 -54 -57 -74q67 -15 67 -82q0 -48 -35 -75.5t-95 -27.5z" />
    <glyph glyph-name="zero.sub" horiz-adv-x="362" 
d="M182 -37q77 0 77 116v14q0 55 -20 85t-58 30q-77 0 -77 -116v-14q0 -115 78 -115zM181 -91q-68 0 -106.5 45.5t-38.5 122.5v14q0 78 39.5 123.5t105.5 45.5t105.5 -45t39.5 -122v-14q0 -77 -38.5 -123.5t-106.5 -46.5z" />
    <glyph glyph-name="one.sup" horiz-adv-x="244" 
d="M111 707l-81 -54v59l89 61h60v-342h-68v276z" />
    <glyph glyph-name="eight.den" horiz-adv-x="326" 
d="M162 -5q-55 0 -92 26.5t-37 74.5q0 66 63 87q-50 21 -50 71q0 42 34.5 67t82.5 25t82 -25t34 -66q0 -50 -51 -71q64 -24 64 -86q0 -49 -36.5 -76t-93.5 -27zM163 45q28 0 45 15t17 43q0 26 -17.5 41.5t-44.5 15.5t-44.5 -15.5t-17.5 -42.5t17.5 -42t44.5 -15zM163 203
q24 0 38 12.5t14 35.5q0 21 -15 34t-37 13q-24 0 -38.5 -12.5t-14.5 -35.5q0 -22 15.5 -34.5t37.5 -12.5z" />
    <glyph glyph-name="seven.den" horiz-adv-x="281" 
d="M180 287h-157v55h241v-8l-124 -334h-68z" />
    <glyph glyph-name="six.den" horiz-adv-x="333" 
d="M171 -5q-135 0 -135 161v9q0 86 39.5 133.5t106.5 47.5q98 0 110 -91h-62q-11 40 -51 40q-71 0 -76 -116q26 44 84 44q50 0 81.5 -30.5t31.5 -80.5q0 -54 -34.5 -85.5t-94.5 -31.5zM171 44q28 0 45 18.5t17 47.5q0 30 -16.5 48.5t-45.5 18.5t-47 -17.5t-18 -45.5
q0 -33 17.5 -51.5t47.5 -18.5z" />
    <glyph glyph-name="five.den" horiz-adv-x="315" 
d="M151 -5q-58 0 -89.5 28.5t-34.5 75.5h63q4 -26 17 -39t44 -13q27 0 42.5 18t15.5 49q0 30 -15.5 47.5t-43.5 17.5q-47 0 -70 -29h-36l4 192h210v-52h-159l-1 -92q28 30 75 30q48 0 76.5 -31t28.5 -84q0 -54 -35 -86t-92 -32z" />
    <glyph glyph-name="four.den" horiz-adv-x="330" 
d="M195 69h-172v24l153 249h83v-224h45v-49h-45v-69h-64v69zM196 118v173l-101 -173h101z" />
    <glyph glyph-name="three.den" horiz-adv-x="324" 
d="M158 -5q-62 0 -95.5 29.5t-35.5 81.5h61q7 -61 68 -61q63 0 63 54t-60 54h-26v47h25q56 0 56 49q0 21 -13.5 34t-38.5 13q-26 0 -42.5 -14.5t-19.5 -40.5h-61q3 47 36 76t88 29q53 0 84 -26t31 -66q0 -54 -57 -74q67 -15 67 -82q0 -48 -35 -75.5t-95 -27.5z" />
    <glyph glyph-name="two.den" horiz-adv-x="299" 
d="M14 11l128 136q54 57 54 97q0 23 -13 36.5t-37 13.5q-50 0 -60 -66h-61q3 57 35.5 87.5t87.5 30.5q53 0 83.5 -27.5t30.5 -73.5q0 -58 -66 -122l-73 -72h142v-51h-251v11z" />
    <glyph glyph-name="one.den" horiz-adv-x="244" 
d="M111 276l-81 -54v59l89 61h60v-342h-68v276z" />
    <glyph glyph-name="zero.den" horiz-adv-x="362" 
d="M182 49q77 0 77 116v14q0 55 -20 85t-58 30q-77 0 -77 -116v-14q0 -115 78 -115zM181 -5q-68 0 -106.5 45.5t-38.5 122.5v14q0 78 39.5 123.5t105.5 45.5t105.5 -45t39.5 -122v-14q0 -77 -38.5 -123.5t-106.5 -46.5z" />
    <glyph glyph-name="nine.num" horiz-adv-x="332" 
d="M157 368q-107 0 -120 95h63q11 -43 57 -43q73 0 74 114q-28 -43 -83 -43q-51 0 -82.5 30t-31.5 81q0 54 34 86t94 32q68 0 102 -41.5t34 -118.5v-17q0 -85 -36 -130t-105 -45zM162 538q29 0 46.5 17.5t17.5 44.5q0 33 -17.5 52t-46.5 19q-28 0 -45 -18.5t-17 -48.5
t16.5 -48t45.5 -18z" />
    <glyph glyph-name="eight.num" horiz-adv-x="325" 
d="M162 368q-55 0 -92 26.5t-37 74.5q0 66 63 87q-50 21 -50 71q0 42 34.5 67t82.5 25t82 -25t34 -66q0 -50 -51 -71q64 -24 64 -86q0 -49 -36.5 -76t-93.5 -27zM163 418q28 0 45 15t17 43q0 26 -17.5 41.5t-44.5 15.5t-44.5 -15.5t-17.5 -42.5t17.5 -42t44.5 -15zM163 576
q24 0 38 12.5t14 35.5q0 21 -15 34t-37 13q-24 0 -38.5 -12.5t-14.5 -35.5q0 -22 15.5 -34.5t37.5 -12.5z" />
    <glyph glyph-name="seven.num" horiz-adv-x="280" 
d="M180 660h-157v55h241v-8l-124 -334h-68z" />
    <glyph glyph-name="f.short" horiz-adv-x="343" 
d="M108 453h-75v70h75v85q0 168 154 168q39 0 57 -8v-70q-19 9 -54 9q-74 0 -74 -90v-94h128v-70h-128v-453h-83v453z" />
    <glyph glyph-name="f_f.short" horiz-adv-x="631" 
d="M108 453h-75v70h75v78q0 81 39.5 124.5t116.5 43.5q32 0 62 -10v-70q-24 11 -59 11q-76 0 -76 -90v-87h205v85q0 168 154 168q39 0 57 -8v-70q-19 9 -54 9q-74 0 -74 -90v-94h128v-70h-128v-453h-83v453h-205v-453h-83v453z" />
    <glyph glyph-name="six.num" horiz-adv-x="332" 
d="M171 368q-135 0 -135 161v9q0 86 39.5 133.5t106.5 47.5q98 0 110 -91h-62q-11 40 -51 40q-71 0 -76 -116q26 44 84 44q50 0 81.5 -30.5t31.5 -80.5q0 -54 -34.5 -85.5t-94.5 -31.5zM171 417q28 0 45 18.5t17 47.5q0 30 -16.5 48.5t-45.5 18.5t-47 -17.5t-18 -45.5
q0 -33 17.5 -51.5t47.5 -18.5z" />
    <glyph glyph-name="five.num" horiz-adv-x="314" 
d="M151 368q-58 0 -89.5 28.5t-34.5 75.5h63q4 -26 17 -39t44 -13q27 0 42.5 18t15.5 49q0 30 -15.5 47.5t-43.5 17.5q-47 0 -70 -29h-36l4 192h210v-52h-159l-1 -92q28 30 75 30q48 0 76.5 -31t28.5 -84q0 -54 -35 -86t-92 -32z" />
    <glyph glyph-name="four.num" horiz-adv-x="329" 
d="M195 442h-172v24l153 249h83v-224h45v-49h-45v-69h-64v69zM196 491v173l-101 -173h101z" />
    <glyph glyph-name="three.num" horiz-adv-x="323" 
d="M158 368q-62 0 -95.5 29.5t-35.5 81.5h61q7 -61 68 -61q63 0 63 54t-60 54h-26v47h25q56 0 56 49q0 21 -13.5 34t-38.5 13q-26 0 -42.5 -14.5t-19.5 -40.5h-61q3 47 36 76t88 29q53 0 84 -26t31 -66q0 -54 -57 -74q67 -15 67 -82q0 -48 -35 -75.5t-95 -27.5z" />
    <glyph glyph-name="two.num" horiz-adv-x="298" 
d="M14 384l128 136q54 57 54 97q0 23 -13 36.5t-37 13.5q-50 0 -60 -66h-61q3 57 35.5 87.5t87.5 30.5q53 0 83.5 -27.5t30.5 -73.5q0 -58 -66 -122l-73 -72h142v-51h-251v11z" />
    <glyph glyph-name="one.num" horiz-adv-x="243" 
d="M111 649l-81 -54v59l89 61h60v-342h-68v276z" />
    <glyph glyph-name="zero.num" horiz-adv-x="362" 
d="M182 422q77 0 77 116v14q0 55 -20 85t-58 30q-77 0 -77 -116v-14q0 -115 78 -115zM181 368q-68 0 -106.5 45.5t-38.5 122.5v14q0 78 39.5 123.5t105.5 45.5t105.5 -45t39.5 -122v-14q0 -77 -38.5 -123.5t-106.5 -46.5z" />
    <glyph glyph-name="nine.oldtab" horiz-adv-x="600" 
d="M294 231q66 0 109.5 43.5t43.5 111.5q0 83 -43 129t-111 46q-66 0 -108.5 -45t-42.5 -118q0 -75 42.5 -121t109.5 -46zM279 -105q-94 0 -149.5 48t-68.5 132h81q28 -111 144 -111q84 0 123.5 71.5t42.5 222.5q-55 -94 -171 -94q-100 0 -163 66t-63 164q0 105 66.5 169.5
t171.5 64.5q126 0 185 -82.5t59 -223.5v-57q0 -370 -258 -370z" />
    <glyph glyph-name="eight.oldtab" horiz-adv-x="600" 
d="M301 -9q-93 0 -165 55.5t-72 153.5q0 68 37 114t98 68q-108 40 -108 154q0 86 62.5 137t147.5 51t147 -51.5t62 -134.5q0 -111 -110 -155q137 -47 137 -181q0 -99 -70.5 -155t-165.5 -56zM304 413q55 0 87.5 33t32.5 91q0 54 -34.5 87t-88.5 33t-89 -33t-35 -89t36.5 -89
t90.5 -33zM301 61q65 0 107 38.5t42 105.5q0 66 -41.5 103t-105.5 37q-65 0 -108.5 -38t-43.5 -104t43.5 -104t106.5 -38z" />
    <glyph glyph-name="seven.oldtab" horiz-adv-x="600" 
d="M426 550h-358v68h468v-12l-301 -703h-87z" />
    <glyph glyph-name="six.oldtab" horiz-adv-x="600" 
d="M310 -9q-125 0 -185.5 84.5t-60.5 225.5v50q0 178 71.5 275.5t192.5 97.5q82 0 137.5 -43.5t69.5 -126.5h-81q-25 101 -132 101q-80 0 -125 -74t-48 -220q55 94 173 94q102 0 163.5 -65.5t61.5 -164.5q0 -105 -64.5 -169.5t-172.5 -64.5zM310 58q65 0 107.5 45t42.5 118
q0 75 -42 121t-109 46t-111 -43.5t-44 -111.5q0 -83 43.5 -129t112.5 -46z" />
    <glyph glyph-name="five.oldtab" horiz-adv-x="600" 
d="M296 -105q-107 0 -165.5 53t-67.5 142h79q11 -62 45 -94.5t108 -32.5q70 0 111 45.5t41 124.5q0 72 -40 117.5t-105 45.5q-109 0 -167 -67h-30v390h392v-73h-323v-229q49 47 144 47q94 0 155 -63.5t61 -167.5q0 -107 -68.5 -172.5t-169.5 -65.5z" />
    <glyph glyph-name="four.oldtab" horiz-adv-x="600" 
d="M383 57h-347v28l312 533h118v-494h93v-67h-93v-154h-83v154zM383 124v428l-243 -428h243z" />
    <glyph glyph-name="three.oldtab" horiz-adv-x="600" 
d="M292 -105q-111 0 -176.5 62t-69.5 158h79q14 -152 169 -152q81 0 121 37.5t40 105.5q0 137 -153 137h-50v71h46q133 0 133 125q0 56 -31.5 88t-95.5 32q-66 0 -107 -36.5t-48 -100.5h-75q4 87 67.5 146.5t162.5 59.5q98 0 154 -54.5t56 -132.5q0 -113 -109 -158
q137 -38 137 -177q0 -97 -69 -154t-181 -57z" />
    <glyph glyph-name="two.oldtab" horiz-adv-x="600" 
d="M53 20l251 234q34 33 48.5 48t35 41t28 49.5t7.5 50.5q0 54 -33 85.5t-93 31.5q-125 0 -146 -153h-77q8 100 67.5 160.5t155.5 60.5t154.5 -51.5t58.5 -133.5q0 -41 -24.5 -84t-46 -65.5t-81.5 -79.5l-13 -13l-141 -131h312v-70h-463v20z" />
    <glyph glyph-name="one.oldtab" horiz-adv-x="600" 
d="M319 534l-204 -148v80l210 153h79v-619h-85v534z" />
    <glyph glyph-name="zero.oldtab" horiz-adv-x="600" 
d="M302 -9q-111 0 -179.5 75t-68.5 192v103q0 118 67.5 192.5t179.5 74.5t178.5 -74.5t66.5 -190.5v-103q0 -119 -66 -194t-178 -75zM302 62q79 0 118 51.5t39 146.5v102q0 90 -41 143.5t-117 53.5q-77 0 -118.5 -52.5t-41.5 -144.5v-103q0 -93 42 -145t119 -52z" />
    <glyph glyph-name="yen.oldtab" horiz-adv-x="600" 
d="M102 329h151l-196 365h92l160 -315l153 315h81l-184 -365h152v-56h-163v-76h163v-56h-163v-141h-83v141h-163v56h163v76h-163v56z" />
    <glyph glyph-name="sterling.oldtab" horiz-adv-x="600" 
d="M58 366h62q-17 63 -17 136q0 88 61 144t153 56t146 -49t61 -134h-81q-12 59 -40 86.5t-86 27.5q-57 0 -92.5 -36t-35.5 -96q0 -62 16 -135h207v-60h-194q15 -73 15 -128q0 -33 -13 -64q26 -6 85.5 -29t81.5 -23q42 0 64 18.5t25 64.5h70q-4 -69 -43 -111.5t-106 -42.5
q-47 0 -119 30.5t-96 30.5q-30 0 -45 -15t-18 -37h-71q3 37 28.5 73t70.5 45q12 29 12 60q0 44 -23 128h-78v60z" />
    <glyph glyph-name="Euro.oldtab" horiz-adv-x="600" 
d="M35 438h59q7 124 69 194t170 70q91 0 145 -54t66 -155h-80q-20 143 -131 143q-144 0 -155 -198h214l-11 -56h-204v-75h189l-10 -57h-178q5 -97 43.5 -143.5t113.5 -46.5q62 0 96 38t46 117h78q-11 -107 -69.5 -165.5t-150.5 -58.5q-106 0 -169 67t-71 192h-60v57h59v75
h-59v56z" />
    <glyph glyph-name="dollar.oldtab" horiz-adv-x="600" 
d="M144 522q0 -49 26.5 -77t101.5 -43v233q-60 -5 -94 -36t-34 -77zM465 190q0 55 -29 84t-106 44v-260q59 6 97 42.5t38 89.5zM272 -8q-213 14 -232 219h81q10 -68 40.5 -107t110.5 -46v270q-103 19 -153.5 61t-50.5 125q0 76 57 128.5t147 58.5v88h58v-89q89 -9 140.5 -57
t60.5 -132h-75q-22 108 -126 122v-242q112 -19 164 -62t52 -133q0 -82 -61 -140t-155 -64v-123h-58v123z" />
    <glyph glyph-name="braceright.tab" horiz-adv-x="312" 
d="M42 -85q60 0 81.5 32t8.5 115l-19 115q-8 53 17.5 84.5t80.5 53.5q-55 22 -80.5 53.5t-17.5 84.5l19 115q13 83 -8.5 115t-81.5 32v63q100 0 144.5 -49.5t24.5 -158.5l-19 -104q-9 -48 10 -77t78 -43v-62q-59 -15 -78 -43.5t-10 -76.5l19 -104q20 -109 -24.5 -158.5
t-144.5 -49.5v63z" />
    <glyph glyph-name="braceleft.tab" horiz-adv-x="312" 
d="M270 -148q-100 0 -144.5 49.5t-24.5 158.5l19 104q9 48 -10 76.5t-78 43.5v62q59 14 78 43t10 77l-19 104q-20 109 24.5 158.5t144.5 49.5v-63q-60 0 -81.5 -32t-8.5 -115l19 -115q8 -53 -17.5 -84.5t-80.5 -53.5q55 -22 80.5 -53.5t17.5 -84.5l-19 -115
q-13 -83 8.5 -115t81.5 -32v-63z" />
    <glyph glyph-name="bracketright.tab" horiz-adv-x="312" 
d="M42 -82h111v792h-111v66h194v-924h-194v66z" />
    <glyph glyph-name="bracketleft.tab" horiz-adv-x="312" 
d="M76 776h194v-66h-111v-792h111v-66h-194v924z" />
    <glyph glyph-name="three.sub" horiz-adv-x="324" 
d="M158 -91q-62 0 -95.5 29.5t-35.5 81.5h61q7 -61 68 -61q63 0 63 54t-60 54h-26v47h25q56 0 56 49q0 21 -13.5 34t-38.5 13q-26 0 -42.5 -14.5t-19.5 -40.5h-61q3 47 36 76t88 29q53 0 84 -26t31 -66q0 -54 -57 -74q67 -15 67 -82q0 -48 -35 -75.5t-95 -27.5z" />
    <glyph glyph-name="four.sub" horiz-adv-x="330" 
d="M195 -17h-172v24l153 249h83v-224h45v-49h-45v-69h-64v69zM196 32v173l-101 -173h101z" />
    <glyph glyph-name="uni20B4.old" horiz-adv-x="584" 
d="M287 -9q-100 0 -162.5 46.5t-62.5 131.5q0 57 25 97h-57v57h116q46 30 137 62q8 2 20.5 7t14.5 6h-288v57h381q22 30 22 85q0 94 -128 94q-69 0 -105.5 -26.5t-47.5 -86.5h-75q9 87 68.5 134t159.5 47q94 0 151.5 -41.5t57.5 -119.5q0 -51 -21 -86h61v-57h-117
q-42 -28 -138 -64q-23 -8 -29 -11h284v-57h-378q-30 -33 -30 -94q0 -57 38.5 -85t102.5 -28q150 0 171 142h81q-11 -93 -72 -151.5t-180 -58.5z" />
    <glyph glyph-name="uni20B4.oldtab" horiz-adv-x="600" 
d="M295 -9q-100 0 -162.5 46.5t-62.5 131.5q0 57 25 97h-57v57h116q46 30 137 62q8 2 20.5 7t14.5 6h-288v57h381q22 30 22 85q0 94 -128 94q-69 0 -105.5 -26.5t-47.5 -86.5h-75q9 87 68.5 134t159.5 47q94 0 151.5 -41.5t57.5 -119.5q0 -51 -21 -86h61v-57h-117
q-42 -28 -138 -64q-23 -8 -29 -11h284v-57h-378q-30 -33 -30 -94q0 -57 38.5 -85t102.5 -28q150 0 171 142h81q-11 -93 -72 -151.5t-180 -58.5z" />
    <glyph glyph-name="uni20B4.tab" horiz-adv-x="600" 
d="M295 -9q-95 0 -153.5 48t-58.5 135q0 60 24 101h-57v58h109q40 31 132 64q34 13 36 14h-277v58h357q18 28 18 88q0 97 -111 97q-61 0 -93.5 -27t-44.5 -90h-78q10 90 66 138.5t150 48.5q87 0 141 -43.5t54 -122.5q0 -51 -19 -89h60v-58h-110q-43 -33 -133 -66
q-11 -4 -29 -12h272v-58h-355q-25 -34 -25 -97q0 -59 34 -88t91 -29q136 0 156 147h84q-11 -96 -69 -156.5t-171 -60.5z" />
    <glyph glyph-name="five.sub" horiz-adv-x="315" 
d="M151 -91q-58 0 -89.5 28.5t-34.5 75.5h63q4 -26 17 -39t44 -13q27 0 42.5 18t15.5 49q0 30 -15.5 47.5t-43.5 17.5q-47 0 -70 -29h-36l4 192h210v-52h-159l-1 -92q28 30 75 30q48 0 76.5 -31t28.5 -84q0 -54 -35 -86t-92 -32z" />
    <glyph glyph-name="uni20B8.old" horiz-adv-x="546" 
d="M29 637v57h488v-57h-488zM231 499h-202v68h488v-68h-202v-499h-84v499z" />
    <glyph glyph-name="uni20B8.oldtab" horiz-adv-x="600" 
d="M56 637v57h488v-57h-488zM258 499h-202v68h488v-68h-202v-499h-84v499z" />
    <glyph glyph-name="uni20B8.tab" horiz-adv-x="600" 
d="M59 653v62h483v-62h-483zM257 514h-198v71h483v-71h-198v-514h-87v514z" />
    <glyph glyph-name="six.sub" horiz-adv-x="333" 
d="M171 -91q-135 0 -135 161v9q0 86 39.5 133.5t106.5 47.5q98 0 110 -91h-62q-11 40 -51 40q-71 0 -76 -116q26 44 84 44q50 0 81.5 -30.5t31.5 -80.5q0 -54 -34.5 -85.5t-94.5 -31.5zM171 -42q28 0 45 18.5t17 47.5q0 30 -16.5 48.5t-45.5 18.5t-47 -17.5t-18 -45.5
q0 -33 17.5 -51.5t47.5 -18.5z" />
    <glyph glyph-name="uni20BD.old" horiz-adv-x="601" 
d="M339 360q77 0 117 36.5t40 105.5v4q0 139 -157 139h-122v-285h122zM217 160v-160h-87v160h-100v56h100v76h-100v56h100v367h203q110 0 180 -51.5t70 -157.5v-4q0 -108 -69.5 -159.5t-180.5 -51.5h-116v-75h230v-56h-230z" />
    <glyph glyph-name="uni20BD.oldtab" horiz-adv-x="600" 
d="M319 348q157 0 157 138v4q0 72 -40 103t-117 31h-102v-276h102zM217 148v-148h-87v148h-100v56h100v76h-100v56h100v358h183q111 0 180.5 -49.5t69.5 -154.5v-4q0 -107 -69.5 -157t-180.5 -50h-96v-75h210v-56h-210z" />
    <glyph glyph-name="uni20BD.tab" horiz-adv-x="600" 
d="M319 360q77 0 117 36.5t40 105.5v4q0 139 -157 139h-102v-285h102zM217 165v-165h-87v165h-100v58h100v78h-100v58h100v356h183q110 0 180 -51.5t70 -157.5v-4q0 -108 -69.5 -159.5t-180.5 -51.5h-96v-68h223v-58h-223z" />
    <glyph glyph-name="parenright.tab" horiz-adv-x="312" 
d="M35 -148q132 214 132 460q0 250 -132 461h83q136 -206 136 -461q0 -258 -136 -460h-83z" />
    <glyph glyph-name="parenleft.tab" horiz-adv-x="312" 
d="M194 -148q-136 202 -136 460q0 255 136 461h83q-132 -211 -132 -461q0 -246 132 -460h-83z" />
    <glyph glyph-name="semicolon.tab" horiz-adv-x="312" 
d="M31 -95l96 219l81 -38l-123 -209zM165 292q-26 0 -45 18.5t-19 45.5t19 45.5t45 18.5t45 -18.5t19 -45.5t-19 -45.5t-45 -18.5z" />
    <glyph glyph-name="colon.tab" horiz-adv-x="312" 
d="M156 -5q-26 0 -45 18.5t-19 45.5t19 45.5t45 18.5t45 -18.5t19 -45.5t-19 -45.5t-45 -18.5zM156 292q-26 0 -45 18.5t-19 45.5t19 45.5t45 18.5t45 -18.5t19 -45.5t-19 -45.5t-45 -18.5z" />
    <glyph glyph-name="comma.tab" horiz-adv-x="312" 
d="M51 -95l96 219l81 -38l-123 -209z" />
    <glyph glyph-name="period.tab" horiz-adv-x="312" 
d="M156 -5q-26 0 -45 18.5t-19 45.5t19 45.5t45 18.5t45 -18.5t19 -45.5t-19 -45.5t-45 -18.5z" />
    <glyph glyph-name="seven.sub" horiz-adv-x="281" 
d="M180 201h-157v55h241v-8l-124 -334h-68z" />
    <glyph glyph-name="uni021B.alt" horiz-adv-x="338" 
d="M71 -194l58 157l80 -24l-87 -159zM115 453h-82v70h82v119h83v-119h115v-70h-115v-453h-83v453z" />
    <glyph glyph-name="greaterequal.tab" 
d="M121 199l260 135l-260 135v80l384 -205v-20l-384 -205v80zM121 70h384v-70h-384v70z" />
    <glyph glyph-name="uni0448.bgr" horiz-adv-x="910" 
d="M826 0h-83v83q-19 -39 -60.5 -65.5t-95.5 -26.5q-116 0 -153 98q-26 -49 -76 -73.5t-103 -24.5q-77 0 -126.5 50.5t-49.5 157.5v324h83v-330q0 -130 111 -130q56 0 97 37t41 103v320h83v-330q0 -130 111 -130q55 0 96.5 38t41.5 105v317h83v-523z" />
    <glyph glyph-name="lessequal.tab" 
d="M107 324v20l384 205v-80l-260 -135l260 -135v-80zM107 70h384v-70h-384v70z" />
    <glyph glyph-name="greater.tab" 
d="M121 175l263 147l-263 147v80l384 -217v-20l-384 -217v80z" />
    <glyph glyph-name="uni0433.locl" horiz-adv-x="446" 
d="M167 453v-453h-83v523h332v-70h-249z" />
    <glyph glyph-name="uni0431.locl" horiz-adv-x="604" 
d="M301 -9q-111 0 -183.5 74t-72.5 182v8q0 109 70 178.5t174 69.5h9q-116 61 -150 90q-46 40 -46 86t34.5 69.5t93.5 23.5h132q102 0 147 9l5 -70q-74 -17 -153 -17h-112q-34 0 -48.5 -7t-14.5 -27q0 -10 9 -21t28 -23.5t37 -23t48.5 -26.5t48.5 -27q41 -25 66 -41.5
t54 -43t44.5 -52.5t26.5 -63.5t11 -82.5v-8q0 -111 -73.5 -184t-184.5 -73zM302 60q78 0 124.5 52.5t46.5 134.5v7q0 84 -47 136.5t-124 52.5q-78 0 -124.5 -52.5t-46.5 -135.5v-8q0 -83 46.5 -135t124.5 -52z" />
    <glyph glyph-name="less.tab" 
d="M107 312v20l384 217v-80l-263 -147l263 -147v-80z" />
    <glyph glyph-name="approxequal.tab" 
d="M101 166q5 58 36 88.5t74 30.5q41 0 105 -22t87 -22q17 0 30 11.5t15 34.5h63q-5 -59 -35 -89t-72 -30q-43 0 -107 22t-87 22q-39 0 -46 -46h-63zM101 343q5 58 36 88.5t74 30.5q41 0 105 -22t87 -22q17 0 30 11.5t15 34.5h63q-5 -59 -35 -89t-72 -30q-43 0 -107 22
t-87 22q-39 0 -46 -46h-63z" />
    <glyph glyph-name="notequal.tab" 
d="M104 448h215l40 103h76l-40 -103h113v-72h-141l-41 -108h182v-72h-210l-40 -103h-76l40 103h-118v72h146l41 108h-187v72z" />
    <glyph glyph-name="equal.tab" 
d="M104 268h404v-72h-404v72zM104 448h404v-72h-404v72z" />
    <glyph glyph-name="divide.tab" 
d="M306 89q-26 0 -45 18.5t-19 45.5t19 45.5t45 18.5t45 -18.5t19 -45.5t-19 -45.5t-45 -18.5zM83 377h447v-70h-447v70zM306 467q-26 0 -45 18.5t-19 45.5t19 45.5t45 18.5t45 -18.5t19 -45.5t-19 -45.5t-45 -18.5z" />
    <glyph glyph-name="multiply.tab" 
d="M105 179l154 154l-154 154l47 48l154 -155l154 155l48 -48l-154 -154l154 -154l-48 -48l-154 155l-154 -155z" />
    <glyph glyph-name="uni0447.bgr" horiz-adv-x="556" 
d="M389 0v244q-54 -58 -150 -58q-77 0 -126 49.5t-49 151.5v136h83v-132q0 -133 114 -133q85 0 128 58v207h83v-523h-83z" />
    <glyph glyph-name="uni0414.bgr" horiz-adv-x="673" 
d="M142 73h384l-192 570zM72 -130h-72v203h60l221 642h114l217 -642h61v-203h-72l-5 130h-519z" />
    <glyph glyph-name="plusminus.tab" 
d="M270 327h-187v70h187v182h73v-182h187v-70h-187v-182h-73v182zM83 70h447v-70h-447v70z" />
    <glyph glyph-name="minus.tab" 
d="M83 377h447v-70h-447v70z" />
    <glyph glyph-name="plus.tab" 
d="M270 307h-187v70h187v202h73v-202h187v-70h-187v-202h-73v202z" />
    <glyph glyph-name="perthousand.tab" horiz-adv-x="1012" 
d="M186 459q29 0 45 26t16 73q0 46 -16 72.5t-45 26.5q-61 0 -61 -100q0 -98 61 -98zM186 395q-55 0 -95 44t-40 117q0 76 39.5 120.5t95.5 44.5q57 0 96 -44t39 -119t-39.5 -119t-95.5 -44zM534 715h76l-437 -715h-76zM518 56q29 0 45 26t16 73q0 46 -16 72.5t-45 26.5
q-61 0 -61 -100q0 -98 61 -98zM518 -8q-55 0 -95 44t-40 117q0 76 39.5 120.5t95.5 44.5q57 0 96 -44t39 -119t-39.5 -119t-95.5 -44zM826 56q29 0 45 26t16 73q0 46 -16 72.5t-45 26.5q-61 0 -61 -100q0 -98 61 -98zM826 -8q-55 0 -95 44t-40 117q0 76 39.5 120.5
t95.5 44.5q57 0 96 -44t39 -119t-39.5 -119t-95.5 -44z" />
    <glyph glyph-name="uni044E.bgr" horiz-adv-x="784" 
d="M491 -9q-104 0 -171.5 67.5t-73.5 174.5h-79v-233h-83v773h83v-470h80q12 104 77.5 166.5t167.5 62.5q111 0 179 -74t68 -192v-8q0 -119 -68.5 -193t-179.5 -74zM492 60q77 0 119 53t42 144v7q0 92 -42 145.5t-119 53.5q-78 0 -119.5 -53t-41.5 -145v-8q0 -92 41 -144.5
t120 -52.5z" />
    <glyph glyph-name="uni0439.bgr" horiz-adv-x="594" 
d="M295 619q-54 0 -92 37.5t-40 94.5h72q6 -74 60 -74q59 0 66 74h70q-4 -57 -42.5 -94.5t-93.5 -37.5zM261 -9q-83 0 -132.5 49t-49.5 152v331h83v-327q0 -69 29.5 -101t91.5 -32q60 0 102 38t42 105v317h83v-523h-83v83q-19 -40 -62.5 -66t-103.5 -26z" />
    <glyph glyph-name="uni0436.bgr" horiz-adv-x="709" 
d="M314 269l-202 -269h-93l213 278l-194 245h89l187 -246v496h81v-496l187 246h90l-194 -245l213 -278h-94l-202 269v-269h-81v269z" />
    <glyph glyph-name="percent.tab" horiz-adv-x="812" 
d="M212 448q42 0 65 27t23 77q0 48 -23.5 76t-64.5 28q-40 0 -64 -27.5t-24 -77.5t23.5 -76.5t64.5 -26.5zM212 383q-66 0 -115 48t-49 119q0 73 48.5 122t115.5 49t115.5 -49t48.5 -120q0 -72 -49 -120.5t-115 -48.5zM586 715h76l-437 -715h-76zM600 57q42 0 65 27t23 77
q0 48 -23.5 76t-64.5 28q-40 0 -64 -27.5t-24 -77.5t23.5 -76.5t64.5 -26.5zM600 -8q-66 0 -115 48t-49 119q0 73 48.5 122t115.5 49t115.5 -49t48.5 -120q0 -72 -49 -120.5t-115 -48.5z" />
    <glyph glyph-name="eight.sub" horiz-adv-x="326" 
d="M162 -91q-55 0 -92 26.5t-37 74.5q0 66 63 87q-50 21 -50 71q0 42 34.5 67t82.5 25t82 -25t34 -66q0 -50 -51 -71q64 -24 64 -86q0 -49 -36.5 -76t-93.5 -27zM163 -41q28 0 45 15t17 43q0 26 -17.5 41.5t-44.5 15.5t-44.5 -15.5t-17.5 -42.5t17.5 -42t44.5 -15zM163 117
q24 0 38 12.5t14 35.5q0 21 -15 34t-37 13q-24 0 -38.5 -12.5t-14.5 -35.5q0 -22 15.5 -34.5t37.5 -12.5z" />
    <glyph glyph-name="nine.sub" horiz-adv-x="333" 
d="M157 -91q-107 0 -120 95h63q11 -43 57 -43q73 0 74 114q-28 -43 -83 -43q-51 0 -82.5 30t-31.5 81q0 54 34 86t94 32q68 0 102 -41.5t34 -118.5v-17q0 -85 -36 -130t-105 -45zM162 79q29 0 46.5 17.5t17.5 44.5q0 33 -17.5 52t-46.5 19q-28 0 -45 -18.5t-17 -48.5
t16.5 -48t45.5 -18z" />
    <glyph glyph-name="plus.sub" horiz-adv-x="351" 
d="M148 56h-101v53h101v106h55v-106h101v-53h-101v-105h-55v105z" />
    <glyph glyph-name="uni0424.bgr" horiz-adv-x="835" 
d="M460 660q147 -4 233 -74.5t86 -221.5v-8q0 -101 -44 -168t-113 -95t-162 -30v-73h-85v73q-145 2 -232 72t-87 216v5q0 154 87.5 227t231.5 77v65h85v-65zM460 129q108 3 169 53t61 175v8q0 123 -60 175t-170 56v-467zM375 594q-110 -4 -170 -55t-60 -184v-5
q0 -118 60.5 -169.5t169.5 -53.5v467z" />
    <glyph glyph-name="uni0446.bgr" horiz-adv-x="610" 
d="M523 -127l-6 127h-90v83q-19 -40 -62.5 -66t-103.5 -26q-83 0 -132.5 49t-49.5 152v331h83v-327q0 -69 29.5 -101t91.5 -32q60 0 102 38t42 105v317h83v-453h80v-197h-67z" />
    <glyph glyph-name="minus.sub" horiz-adv-x="351" 
d="M47 109h257v-53h-257v53z" />
    <glyph glyph-name="zero.sup" horiz-adv-x="362" 
d="M182 480q77 0 77 116v14q0 55 -20 85t-58 30q-77 0 -77 -116v-14q0 -115 78 -115zM181 426q-68 0 -106.5 45.5t-38.5 122.5v14q0 78 39.5 123.5t105.5 45.5t105.5 -45t39.5 -122v-14q0 -77 -38.5 -123.5t-106.5 -46.5z" />
    <glyph glyph-name="uni0432.bgr" horiz-adv-x="518" 
d="M62 524q0 122 48.5 189.5t148.5 67.5q90 0 140 -52.5t50 -137.5v-3q0 -59 -34 -107.5t-89 -58.5q64 -9 105.5 -57t41.5 -136v-3q0 -104 -59 -170t-147 -66q-106 0 -155.5 69.5t-49.5 188.5v276zM145 453h92q63 0 94 38.5t31 96.5v3q0 53 -25 87t-78 34q-114 0 -114 -183
v-76zM264 60q60 0 93 44t33 122v3q0 158 -153 158h-92v-146q0 -181 119 -181z" />
    <glyph glyph-name="uni0449.bgr" horiz-adv-x="926" 
d="M839 -127l-6 127h-90v83q-19 -39 -60.5 -65.5t-95.5 -26.5q-116 0 -153 98q-26 -49 -76 -73.5t-103 -24.5q-77 0 -126.5 50.5t-49.5 157.5v324h83v-330q0 -130 111 -130q56 0 97 37t41 103v320h83v-330q0 -130 111 -130q55 0 96.5 38t41.5 105v317h83v-453h80v-197h-67z
" />
    <glyph glyph-name="two.sub" horiz-adv-x="299" 
d="M14 -75l128 136q54 57 54 97q0 23 -13 36.5t-37 13.5q-50 0 -60 -66h-61q3 57 35.5 87.5t87.5 30.5q53 0 83.5 -27.5t30.5 -73.5q0 -58 -66 -122l-73 -72h142v-51h-251v11z" />
    <glyph glyph-name="two.sup" horiz-adv-x="299" 
d="M14 442l128 136q54 57 54 97q0 23 -13 36.5t-37 13.5q-50 0 -60 -66h-61q3 57 35.5 87.5t87.5 30.5q53 0 83.5 -27.5t30.5 -73.5q0 -58 -66 -122l-73 -72h142v-51h-251v11z" />
    <glyph glyph-name="one.sub" horiz-adv-x="244" 
d="M111 189l-81 -54v59l89 61h60v-342h-68v276z" />
    <glyph glyph-name="uni0437.bgr" horiz-adv-x="481" 
d="M438 25q0 -101 -59 -158.5t-147 -57.5q-91 0 -140.5 44.5t-60.5 116.5h85q18 -91 114 -91q58 0 91.5 36t33.5 110v3q0 148 -143 148h-47v66h46q116 0 116 115v3q0 103 -96 103q-81 0 -98 -82h-80q9 79 59.5 115t122.5 36q84 0 131.5 -46.5t47.5 -125.5v-3
q0 -56 -32 -96.5t-81 -48.5q61 -11 99 -57t38 -127v-3z" />
    <glyph glyph-name="four.sup" horiz-adv-x="330" 
d="M195 500h-172v24l153 249h83v-224h45v-49h-45v-69h-64v69zM196 549v173l-101 -173h101z" />
    <glyph glyph-name="five.sup" horiz-adv-x="315" 
d="M151 426q-58 0 -89.5 28.5t-34.5 75.5h63q4 -26 17 -39t44 -13q27 0 42.5 18t15.5 49q0 30 -15.5 47.5t-43.5 17.5q-47 0 -70 -29h-36l4 192h210v-52h-159l-1 -92q28 30 75 30q48 0 76.5 -31t28.5 -84q0 -54 -35 -86t-92 -32z" />
    <glyph glyph-name="six.sup" horiz-adv-x="333" 
d="M171 426q-135 0 -135 161v9q0 86 39.5 133.5t106.5 47.5q98 0 110 -91h-62q-11 40 -51 40q-71 0 -76 -116q26 44 84 44q50 0 81.5 -30.5t31.5 -80.5q0 -54 -34.5 -85.5t-94.5 -31.5zM171 475q28 0 45 18.5t17 47.5q0 30 -16.5 48.5t-45.5 18.5t-47 -17.5t-18 -45.5
q0 -33 17.5 -51.5t47.5 -18.5z" />
    <glyph glyph-name="seven.sup" horiz-adv-x="281" 
d="M180 718h-157v55h241v-8l-124 -334h-68z" />
    <glyph glyph-name="uni0442.locl" horiz-adv-x="481" 
d="M451 453h-169v-453h-83v453h-169v70h421v-70z" />
    <glyph glyph-name="florin.tab" 
d="M117 413h117l23 152q24 159 169 159q38 0 68 -11v-70q-26 12 -66 12q-75 0 -89 -94l-23 -148h142v-68h-152l-80 -527h-83l80 527h-106v68z" />
    <glyph glyph-name="yen.tab" 
d="M102 339h156l-202 376h94l165 -324l157 324h84l-190 -376h157v-58h-168v-78h168v-58h-168v-145h-85v145h-168v58h168v78h-168v58z" />
    <glyph glyph-name="sterling.tab" 
d="M56 377h65q-18 70 -18 141q0 91 63 148.5t157 57.5q95 0 151 -50.5t63 -138.5h-84q-10 59 -40 88.5t-90 29.5q-58 0 -95 -37t-37 -99q0 -59 17 -140h213v-62h-199q15 -75 15 -132q0 -35 -13 -65q28 -7 88 -30.5t84 -23.5q86 0 91 86h73q-5 -72 -45 -115.5t-109 -43.5
q-48 0 -123 31.5t-99 31.5q-31 0 -46.5 -15.5t-18.5 -38.5h-73q3 39 29.5 76t73.5 46q12 29 12 62q0 45 -23 131h-82v62z" />
    <glyph glyph-name="eight.sup" horiz-adv-x="326" 
d="M162 426q-55 0 -92 26.5t-37 74.5q0 66 63 87q-50 21 -50 71q0 42 34.5 67t82.5 25t82 -25t34 -66q0 -50 -51 -71q64 -24 64 -86q0 -49 -36.5 -76t-93.5 -27zM163 476q28 0 45 15t17 43q0 26 -17.5 41.5t-44.5 15.5t-44.5 -15.5t-17.5 -42.5t17.5 -42t44.5 -15zM163 634
q24 0 38 12.5t14 35.5q0 21 -15 34t-37 13q-24 0 -38.5 -12.5t-14.5 -35.5q0 -22 15.5 -34.5t37.5 -12.5z" />
    <glyph glyph-name="nine.sup" horiz-adv-x="333" 
d="M157 426q-107 0 -120 95h63q11 -43 57 -43q73 0 74 114q-28 -43 -83 -43q-51 0 -82.5 30t-31.5 81q0 54 34 86t94 32q68 0 102 -41.5t34 -118.5v-17q0 -85 -36 -130t-105 -45zM162 596q29 0 46.5 17.5t17.5 44.5q0 33 -17.5 52t-46.5 19q-28 0 -45 -18.5t-17 -48.5
t16.5 -48t45.5 -18z" />
    <glyph glyph-name="plus.sup" horiz-adv-x="351" 
d="M148 574h-101v53h101v106h55v-106h101v-53h-101v-105h-55v105z" />
    <glyph glyph-name="space.tab" horiz-adv-x="300" 
 />
    <glyph glyph-name="nine.old" horiz-adv-x="623" 
d="M290 -105q-94 0 -152 48.5t-71 131.5h81q28 -111 149 -111q93 0 133 71t43 223q-25 -43 -73 -68.5t-108 -25.5q-103 0 -167 66t-64 164q0 105 66 169.5t177 64.5q134 0 194 -87t60 -232v-30q0 -384 -268 -384zM305 231q70 0 116.5 43.5t46.5 111.5q0 83 -46 129t-118 46
q-69 0 -112.5 -44.5t-43.5 -118.5q0 -76 42.5 -121.5t114.5 -45.5z" />
    <glyph glyph-name="eight.old" horiz-adv-x="607" 
d="M304 -9q-61 0 -115.5 22.5t-92 71.5t-37.5 115q0 69 39 115t101 67q-53 19 -83 58.5t-30 95.5q0 86 65 137t153 51q87 0 152 -51.5t65 -134.5q0 -109 -115 -155q66 -23 104 -68.5t38 -112.5q0 -99 -73 -155t-171 -56zM304 61q68 0 112.5 38.5t44.5 105.5q0 66 -44.5 103
t-110.5 37q-67 0 -113.5 -38t-46.5 -104q0 -65 46 -103.5t112 -38.5zM307 413q58 0 93 33t35 91q0 53 -37 86.5t-94 33.5q-58 0 -95 -33t-37 -89t39.5 -89t95.5 -33z" />
    <glyph glyph-name="seven.old" horiz-adv-x="535" 
d="M397 550h-362v68h468v-12l-289 -703h-87z" />
    <glyph glyph-name="six.old" horiz-adv-x="623" 
d="M319 -9q-134 0 -194 87t-60 232v30q0 184 75 284t199 100q84 0 138.5 -43.5t68.5 -126.5h-81q-13 51 -43.5 76t-88.5 25q-82 0 -131 -75t-52 -219q25 43 73 68.5t108 25.5q103 0 167 -66t64 -164q0 -105 -66 -169.5t-177 -64.5zM319 58q69 0 112.5 44.5t43.5 118.5
q0 76 -42.5 121.5t-114.5 45.5q-71 0 -117 -43.5t-46 -111.5q0 -83 46 -129t118 -46z" />
    <glyph glyph-name="five.old" horiz-adv-x="581" 
d="M282 -105q-107 0 -165.5 53t-67.5 142h79q11 -62 45 -94.5t108 -32.5q70 0 111 45.5t41 124.5q0 72 -40 117.5t-105 45.5q-109 0 -167 -67h-30v390h392v-73h-323v-229q49 47 144 47q94 0 155 -63.5t61 -167.5q0 -107 -68.5 -172.5t-169.5 -65.5z" />
    <glyph glyph-name="four.old" horiz-adv-x="629" 
d="M403 57h-367v28l336 533h114v-494h101v-67h-101v-154h-83v154zM403 124v428l-260 -428h260z" />
    <glyph glyph-name="three.old" horiz-adv-x="605" 
d="M294 -105q-111 0 -176.5 62t-69.5 158h79q14 -152 169 -152q81 0 121 37.5t40 105.5q0 137 -153 137h-50v71h46q133 0 133 125q0 56 -31.5 88t-95.5 32q-66 0 -107 -36.5t-48 -100.5h-75q4 87 67.5 146.5t162.5 59.5q98 0 154 -54.5t56 -132.5q0 -113 -109 -158
q137 -38 137 -177q0 -97 -69 -154t-181 -57z" />
    <glyph glyph-name="two.old" horiz-adv-x="553" 
d="M29 20l251 234q34 33 48.5 48t35 41t28 49.5t7.5 50.5q0 54 -33 85.5t-93 31.5q-125 0 -146 -153h-77q8 100 67.5 160.5t155.5 60.5t154.5 -51.5t58.5 -133.5q0 -41 -24.5 -84t-46 -65.5t-81.5 -79.5l-13 -13l-141 -131h312v-70h-463v20z" />
    <glyph glyph-name="one.old" horiz-adv-x="399" 
d="M199 534l-158 -112v80l164 117h79v-619h-85v534z" />
    <glyph glyph-name="uni0448.locl" horiz-adv-x="811" 
d="M84 523h83v-453h197v453h83v-453h197v453h83v-523h-643v523z" />
    <glyph glyph-name="zero.old" horiz-adv-x="655" 
d="M329 62q87 0 132.5 59t45.5 172v36q0 109 -47 169.5t-132 60.5t-132.5 -59.5t-47.5 -170.5v-37q0 -112 47.5 -171t133.5 -59zM329 -9q-120 0 -194 82.5t-74 217.5v37q0 137 73 218.5t194 81.5t193.5 -81.5t72.5 -216.5v-37q0 -138 -71.5 -220t-193.5 -82z" />
    <glyph glyph-name="uni0430.alt" horiz-adv-x="615" 
d="M282 -9q-98 0 -164.5 70.5t-66.5 189.5v8q0 118 69.5 195.5t169.5 77.5q109 0 164 -91v82h83v-523h-83v88q-22 -39 -72 -68t-100 -29zM291 60q71 0 118.5 51t47.5 147v8q0 98 -42.5 147.5t-116.5 49.5q-73 0 -117 -53t-44 -147v-8q0 -94 44 -144.5t110 -50.5z" />
    <glyph glyph-name="yen.old" horiz-adv-x="571" 
d="M87 329h151l-205 365h91l170 -315l162 315h82l-194 -365h152v-56h-163v-76h163v-56h-163v-141h-83v141h-163v56h163v76h-163v56z" />
    <glyph glyph-name="uni0434.bgr" horiz-adv-x="627" 
d="M292 86q75 0 123 49.5t48 135.5v7q0 87 -44 136t-122 49q-77 0 -121.5 -52t-44.5 -135v-8q0 -83 46.5 -132.5t114.5 -49.5zM293 -191q-110 0 -168 44.5t-69 116.5h85q18 -91 151 -91q80 0 124 39.5t44 121.5v76q-23 -40 -73 -69.5t-104 -29.5q-103 0 -170.5 70t-67.5 178
v7q0 109 69 184.5t175 75.5q114 0 171 -93v84h83v-488q0 -110 -68.5 -168t-181.5 -58z" />
    <glyph glyph-name="uni043B.bgr" horiz-adv-x="534" 
d="M509 0h-90l-155 439l-153 -439h-86l188 523h106z" />
    <glyph glyph-name="uni043F.locl" horiz-adv-x="581" 
d="M414 453h-247v-453h-83v523h413v-523h-83v453z" />
    <glyph glyph-name="sterling.old" horiz-adv-x="590" 
d="M53 366h62q-17 63 -17 136q0 88 61 144t153 56t146 -49t61 -134h-81q-12 59 -40 86.5t-86 27.5q-57 0 -92.5 -36t-35.5 -96q0 -62 16 -135h207v-60h-194q15 -73 15 -128q0 -33 -13 -64q26 -6 85.5 -29t81.5 -23q42 0 64 18.5t25 64.5h70q-4 -69 -43 -111.5t-106 -42.5
q-47 0 -119 30.5t-96 30.5q-30 0 -45 -15t-18 -37h-71q3 37 28.5 73t70.5 45q12 29 12 60q0 44 -23 128h-78v60z" />
    <glyph glyph-name="Euro.old" horiz-adv-x="666" 
d="M37 438h71q13 116 81 190t179 74q100 0 162.5 -55.5t73.5 -156.5h-79q-11 70 -52 108t-105 38q-77 0 -122 -52.5t-55 -145.5h232l-11 -56h-223v-75h209l-11 -57h-195q21 -190 178 -190q140 0 164 159h78q-12 -107 -76 -167.5t-166 -60.5q-110 0 -179.5 71.5t-81.5 187.5
h-72v57h69v75h-69v56z" />
    <glyph glyph-name="dollar.old" horiz-adv-x="620" 
d="M282 -8q-213 14 -232 219h81q10 -68 40.5 -107t110.5 -46v270q-103 19 -153.5 61t-50.5 125q0 76 57 129t147 59v87h58v-89q89 -9 140.5 -57t60.5 -132h-75q-22 108 -126 122v-242q112 -19 164 -62t52 -133q0 -82 -61 -140t-155 -64v-123h-58v123zM475 190q0 55 -29 84
t-106 44v-260q59 6 97 42.5t38 89.5zM154 522q0 -49 26.5 -77t101.5 -43v233q-60 -5 -94 -36t-34 -77z" />
    <glyph glyph-name="uni043A.bgr" horiz-adv-x="516" 
d="M167 267v-267h-83v773h83v-494l217 244h97l-224 -246l243 -277h-101z" />
    <glyph glyph-name="uni043F.bgr" horiz-adv-x="598" 
d="M84 523h83v-83q20 40 63 66t105 26q86 0 135 -51t49 -160v-321h-83v327q0 69 -30 101t-93 32q-61 0 -103.5 -38t-42.5 -105v-317h-83v523z" />
    <glyph glyph-name="uni0442.bgr" horiz-adv-x="910" 
d="M84 523h83v-80q19 39 60 64t96 25q116 0 153 -98q25 47 76 72.5t103 25.5q77 0 126.5 -50.5t49.5 -157.5v-324h-83v330q0 130 -111 130q-56 0 -97 -37t-41 -103v-320h-83v330q0 130 -111 130q-56 0 -97 -37t-41 -103v-320h-83v523z" />
    <glyph glyph-name="uni041A.bgr" horiz-adv-x="616" 
d="M177 349v-349h-87v715h87v-344l311 344h97l-318 -347l334 -368h-105z" />
    <glyph glyph-name="minus.sup" horiz-adv-x="351" 
d="M47 627h257v-53h-257v53z" />
    <glyph glyph-name="aacute.alt" horiz-adv-x="627" 
d="M282 -9q-98 0 -164.5 70.5t-66.5 189.5v8q0 118 69.5 195.5t169.5 77.5q109 0 164 -91v82h83v-523h-83v88q-22 -39 -72 -68t-100 -29zM291 60q71 0 118.5 51t47.5 147v8q0 98 -42.5 147.5t-116.5 49.5q-73 0 -117 -53t-44 -147v-8q0 -94 44 -144.5t110 -50.5zM329 760
h104l-104 -147h-62z" />
    <glyph glyph-name="abreve.alt" horiz-adv-x="615" 
d="M282 -9q-98 0 -164.5 70.5t-66.5 189.5v8q0 118 69.5 195.5t169.5 77.5q109 0 164 -91v82h83v-523h-83v88q-22 -39 -72 -68t-100 -29zM291 60q71 0 118.5 51t47.5 147v8q0 98 -42.5 147.5t-116.5 49.5q-73 0 -117 -53t-44 -147v-8q0 -94 44 -144.5t110 -50.5zM304 619
q-54 0 -92 37.5t-40 94.5h66q11 -64 66 -64q59 0 72 64h64q-4 -57 -42.5 -94.5t-93.5 -37.5z" />
    <glyph glyph-name="acircumflex.alt" horiz-adv-x="627" 
d="M282 -9q-98 0 -164.5 70.5t-66.5 189.5v8q0 118 69.5 195.5t169.5 77.5q109 0 164 -91v82h83v-523h-83v88q-22 -39 -72 -68t-100 -29zM291 60q71 0 118.5 51t47.5 147v8q0 98 -42.5 147.5t-116.5 49.5q-73 0 -117 -53t-44 -147v-8q0 -94 44 -144.5t110 -50.5zM269 757h75
l107 -144h-61l-85 75l-85 -75h-59z" />
    <glyph glyph-name="hungarumlaut.uc" horiz-adv-x="412" 
d="M139 898h95l-72 -127h-60zM293 898h95l-72 -127h-60z" />
    <glyph glyph-name="tilde.uc" horiz-adv-x="412" 
d="M260 774q-23 0 -59 21.5t-49 21.5q-14 0 -25 -12.5t-15 -32.5h-60q6 53 34 84.5t67 31.5q23 0 58.5 -21.5t48.5 -21.5q14 0 25 12.5t15 32.5h60q-6 -53 -33.5 -84.5t-66.5 -31.5z" />
    <glyph glyph-name="uni0416.bgr" horiz-adv-x="879" 
d="M395 351l-279 -351h-97l291 363l-283 352h97l271 -346v346h85v-346l271 346h95l-279 -347l293 -368h-101l-279 351v-351h-85v351z" />
    <glyph glyph-name="uni0438.bgr" horiz-adv-x="594" 
d="M261 -9q-83 0 -132.5 49t-49.5 152v331h83v-327q0 -69 29.5 -101t91.5 -32q60 0 102 38t42 105v317h83v-523h-83v83q-19 -40 -62.5 -66t-103.5 -26z" />
    <glyph glyph-name="ring.uc" horiz-adv-x="412" 
d="M206 805q23 0 38 16.5t15 41.5t-15 41.5t-38 16.5t-38 -16.5t-15 -41.5t15 -41.5t38 -16.5zM206 759q-44 0 -75.5 30.5t-31.5 73.5t31.5 73.5t75.5 30.5t75.5 -30.5t31.5 -73.5t-31.5 -73.5t-75.5 -30.5z" />
    <glyph glyph-name="dotaccent.uc" horiz-adv-x="412" 
d="M206 787q-23 0 -39 16t-16 39t16 39t39 16t39 -16t16 -39t-16 -39t-39 -16z" />
    <glyph glyph-name="breve.uc" horiz-adv-x="412" 
d="M204 767q-54 0 -92 37.5t-40 94.5h66q11 -64 66 -64q59 0 72 64h64q-4 -57 -42.5 -94.5t-93.5 -37.5z" />
    <glyph glyph-name="space_uni0326" horiz-adv-x="412" 
d="M134 -194l58 157l80 -24l-87 -159z" />
    <glyph glyph-name="caron.uc" horiz-adv-x="412" 
d="M61 898h61l85 -58l85 58h59l-108 -127h-75z" />
    <glyph glyph-name="circumflex.uc" horiz-adv-x="412" 
d="M169 898h75l107 -127h-61l-85 58l-85 -58h-59z" />
    <glyph glyph-name="acute.uc" horiz-adv-x="412" 
d="M223 898h104l-98 -127h-62z" />
    <glyph glyph-name="macron.uc" horiz-adv-x="412" 
d="M73 850h266v-64h-266v64z" />
    <glyph glyph-name="dieresis.uc" horiz-adv-x="412" 
d="M104 789q-22 0 -37.5 15.5t-15.5 37.5t15.5 37.5t37.5 15.5t37.5 -15.5t15.5 -37.5t-15.5 -37.5t-37.5 -15.5zM307 789q-22 0 -37.5 15.5t-15.5 37.5t15.5 37.5t37.5 15.5t37.5 -15.5t15.5 -37.5t-15.5 -37.5t-37.5 -15.5z" />
    <glyph glyph-name="grave.uc" horiz-adv-x="412" 
d="M85 898h104l56 -127h-62z" />
    <glyph glyph-name="adieresis.alt" horiz-adv-x="627" 
d="M282 -9q-98 0 -164.5 70.5t-66.5 189.5v8q0 118 69.5 195.5t169.5 77.5q109 0 164 -91v82h83v-523h-83v88q-22 -39 -72 -68t-100 -29zM291 60q71 0 118.5 51t47.5 147v8q0 98 -42.5 147.5t-116.5 49.5q-73 0 -117 -53t-44 -147v-8q0 -94 44 -144.5t110 -50.5zM214 634
q-22 0 -37.5 15.5t-15.5 37.5t15.5 37.5t37.5 15.5t37.5 -15.5t15.5 -37.5t-15.5 -37.5t-37.5 -15.5zM402 634q-22 0 -37.5 15.5t-15.5 37.5t15.5 37.5t37.5 15.5t37.5 -15.5t15.5 -37.5t-15.5 -37.5t-37.5 -15.5z" />
    <glyph glyph-name="bar.uc" horiz-adv-x="265" 
d="M99 778h67v-862h-67v862z" />
    <glyph glyph-name="uni0434.locl" horiz-adv-x="578" 
d="M186 202q-11 -92 -34 -132h245v385h-192q-5 -122 -19 -253zM82 -127h-67v197h37q28 7 39 40.5t19 96.5q9 81 17 204q4 55 6 112h345v-453h80v-197h-67l-6 127h-397z" />
    <glyph glyph-name="backslash.uc" horiz-adv-x="415" 
d="M36 778h76l272 -862h-76z" />
    <glyph glyph-name="uni044A.bgr" horiz-adv-x="579" 
d="M30 453v70h222v-191q43 8 90 8q93 0 148 -40.5t55 -126.5v-3q0 -86 -56.5 -132t-133.5 -46q-89 0 -137.5 47.5t-48.5 141.5v272h-139zM355 55q52 0 79.5 30.5t27.5 80.5v3q0 55 -28.5 80.5t-90.5 25.5q-48 0 -91 -8v-86q0 -126 103 -126z" />
    <glyph glyph-name="slash.uc" horiz-adv-x="415" 
d="M303 778h76l-273 -862h-76z" />
    <glyph glyph-name="braceright.uc" horiz-adv-x="393" 
d="M50 -25q74 0 101 27.5t18 102.5l-14 106q-15 105 98 134q-113 29 -98 134l14 106q9 75 -18 102.5t-101 27.5v63q114 0 163.5 -44.5t34.5 -146.5l-14 -95q-16 -116 113 -116v-62q-129 0 -113 -116l14 -95q15 -102 -34.5 -146.5t-163.5 -44.5v63z" />
    <glyph glyph-name="braceleft.uc" horiz-adv-x="393" 
d="M343 -88q-114 0 -163.5 44.5t-34.5 146.5l14 95q16 116 -113 116v62q129 0 113 116l-14 95q-15 102 34.5 146.5t163.5 44.5v-63q-74 0 -101 -27.5t-18 -102.5l14 -106q13 -106 -98 -134q111 -28 98 -134l-14 -106q-9 -75 18 -102.5t101 -27.5v-63z" />
    <glyph glyph-name="bracketright.uc" horiz-adv-x="368" 
d="M50 -18h141v730h-141v66h224v-862h-224v66z" />
    <glyph glyph-name="bracketleft.uc" horiz-adv-x="368" 
d="M94 778h224v-66h-141v-730h141v-66h-224v862z" />
    <glyph glyph-name="parenright.uc" horiz-adv-x="334" 
d="M26 -98q158 204 158 441q0 234 -158 440h82q70 -84 116.5 -199t46.5 -241q0 -127 -46 -242t-117 -199h-82z" />
    <glyph glyph-name="parenleft.uc" horiz-adv-x="334" 
d="M226 -98q-70 84 -116.5 199t-46.5 241t46.5 241.5t116.5 199.5h82q-69 -86 -113.5 -201.5t-44.5 -239.5t44.5 -238.5t113.5 -201.5h-82z" />
    <glyph glyph-name="guillemotright.uc" horiz-adv-x="512" 
d="M182 301l-125 188h82l130 -188l-130 -188h-82zM360 301l-125 188h82l130 -188l-130 -188h-82z" />
    <glyph glyph-name="guillemotleft.uc" horiz-adv-x="512" 
d="M65 301l130 188h82l-125 -188l125 -188h-82zM243 301l130 188h82l-125 -188l125 -188h-82z" />
    <glyph glyph-name="guilsinglright.uc" horiz-adv-x="334" 
d="M182 301l-125 188h82l130 -188l-130 -188h-82z" />
    <glyph glyph-name="guilsinglleft.uc" horiz-adv-x="334" 
d="M65 301l130 188h82l-125 -188l125 -188h-82z" />
    <glyph glyph-name="emdash.uc" horiz-adv-x="897" 
d="M51 361h795v-70h-795v70z" />
    <glyph glyph-name="uni0433.bgr" horiz-adv-x="477" 
d="M232 -9q-94 0 -143 40.5t-49 104.5q0 33 11 58.5t25 40.5t40.5 28t44 18.5t49.5 13.5q31 7 48.5 13t38 17t30 27.5t9.5 39.5q0 32 -23 51.5t-67 19.5q-50 0 -75.5 -19.5t-34.5 -62.5h-80q9 79 60.5 115t128.5 36q78 0 127.5 -35t49.5 -100q0 -31 -11 -55.5t-25.5 -39.5
t-42 -28t-47 -19t-54.5 -15q-27 -7 -44 -13.5t-35 -18t-26.5 -29t-8.5 -41.5q0 -78 105 -78q60 0 88.5 25.5t34.5 75.5h81q-4 -81 -57.5 -125.5t-147.5 -44.5z" />
    <glyph glyph-name="uni041B.bgr" horiz-adv-x="674" 
d="M335 643l-217 -643h-82l246 715h114l242 -715h-86z" />
    <glyph glyph-name="endash.uc" horiz-adv-x="538" 
d="M51 361h436v-70h-436v70z" />
    <glyph glyph-name="hyphen.uc" horiz-adv-x="376" 
d="M66 366h244v-78h-244v78z" />
    <glyph glyph-name="exclamdown.uc" horiz-adv-x="300" 
d="M150 719q27 0 45.5 -18t18.5 -45t-19 -45.5t-45 -18.5t-45 18.5t-19 45.5t18.5 45t45.5 18zM195 0h-92l14 513h64z" />
    <glyph glyph-name="questiondown.uc" horiz-adv-x="501" 
d="M316 463q0 -37 -17 -72.5t-35 -56t-51 -51.5q-24 -24 -37 -39.5t-24.5 -38t-11.5 -45.5q0 -100 107 -100q57 0 92.5 35t40.5 95h78q-6 -89 -63.5 -144t-148.5 -55q-95 0 -142.5 48t-47.5 118q0 35 16.5 67.5t33 51t48.5 48.5q29 27 44.5 44.5t29.5 45t14 56.5v43h74v-50z
M281 719q27 0 45.5 -18t18.5 -45t-19 -45.5t-45 -18.5t-45 18.5t-19 45.5t18.5 45t45.5 18z" />
    <glyph glyph-name="caron.alt" horiz-adv-x="412" 
d="M200 773h94l-48 -175h-58z" />
    <glyph glyph-name="registered.alt" horiz-adv-x="844" 
d="M287 558h135q69 0 108 -28.5t39 -87.5v-2q0 -85 -87 -106l110 -171h-79l-103 159h-48v-159h-75v395zM421 375q73 0 73 62v3q0 60 -73 60h-59v-125h59zM421 33q131 0 225.5 92.5t94.5 233.5q0 139 -93.5 231t-224.5 92q-134 0 -227 -92t-93 -233t94 -232.5t224 -91.5z
M421 -9q-154 0 -260 105.5t-106 260.5q0 153 107 260t261 107q155 0 260.5 -106t105.5 -259q0 -156 -106.5 -262t-261.5 -106z" />
    <glyph glyph-name="space_uni0326.alt" horiz-adv-x="412" 
d="M156 626l87 159l51 -26l-58 -157z" />
    <glyph glyph-name="tcommaaccent.alt" horiz-adv-x="338" 
d="M71 -194l58 157l80 -24l-87 -159zM115 453h-82v70h82v119h83v-119h115v-70h-115v-453h-83v453z" />
    <glyph glyph-name="tcaron.alt" horiz-adv-x="338" 
d="M115 453h-82v70h82v119h83v-119h115v-70h-115v-453h-83v453zM273 773h94l-48 -175h-58z" />
    <glyph glyph-name="uni043D.bgr" horiz-adv-x="591" 
d="M424 233h-257v-233h-83v523h83v-220h257v220h83v-523h-83v233z" />
    <glyph glyph-name="uni044C.bgr" horiz-adv-x="489" 
d="M265 -8q-89 0 -137.5 47.5t-48.5 141.5v342h83v-191q43 8 90 8q93 0 148 -40.5t55 -126.5v-3q0 -86 -56.5 -132t-133.5 -46zM265 55q52 0 79.5 30.5t27.5 80.5v3q0 55 -28.5 80.5t-90.5 25.5q-48 0 -91 -8v-86q0 -126 103 -126z" />
    <glyph glyph-name="tbar.alt" horiz-adv-x="338" 
d="M27 339h82v114h-82v70h82v119h83v-119h115v-70h-115v-114h115v-60h-115v-279h-83v279h-82v60z" />
    <glyph glyph-name="germandbls.alt" horiz-adv-x="627" 
d="M413 -9q-73 0 -120 41t-49 109h80q2 -37 25 -59t64 -22q86 0 86 89q0 18 -7 33t-23 29t-30 23t-38 23q-32 19 -45.5 28t-35 27.5t-30.5 39.5t-9 47q0 27 15 52t37 45t43.5 39t36.5 41t15 45q0 42 -29.5 64.5t-82.5 22.5q-68 0 -105.5 -40.5t-37.5 -117.5v-550h-83v546
q0 103 64 166.5t162 63.5q82 0 136.5 -41t54.5 -111q0 -39 -23 -73.5t-50.5 -54.5t-50.5 -45t-23 -49q0 -17 16 -30.5t67 -43.5l7.5 -4.5t7 -4.5t8.5 -5q54 -35 86.5 -72.5t32.5 -90.5q0 -76 -47 -118t-125 -42z" />
    <glyph glyph-name="atilde.alt" horiz-adv-x="627" 
d="M282 -9q-98 0 -164.5 70.5t-66.5 189.5v8q0 118 69.5 195.5t169.5 77.5q109 0 164 -91v82h83v-523h-83v88q-22 -39 -72 -68t-100 -29zM291 60q71 0 118.5 51t47.5 147v8q0 98 -42.5 147.5t-116.5 49.5q-73 0 -117 -53t-44 -147v-8q0 -94 44 -144.5t110 -50.5zM358 619
q-23 0 -59 21.5t-49 21.5q-14 0 -25 -12.5t-15 -32.5h-60q6 53 34 84.5t67 31.5q23 0 58.5 -21.5t48.5 -21.5q14 0 25 12.5t15 32.5h60q-6 -53 -33.5 -84.5t-66.5 -31.5z" />
    <glyph glyph-name="aringacute.alt" horiz-adv-x="615" 
d="M282 -9q-98 0 -164.5 70.5t-66.5 189.5v8q0 118 69.5 195.5t169.5 77.5q109 0 164 -91v82h83v-523h-83v88q-22 -39 -72 -68t-100 -29zM291 60q71 0 118.5 51t47.5 147v8q0 98 -42.5 147.5t-116.5 49.5q-73 0 -117 -53t-44 -147v-8q0 -94 44 -144.5t110 -50.5zM300 624
q23 0 38 16.5t15 41.5t-15 41.5t-38 16.5t-38 -16.5t-15 -41.5t15 -41.5t38 -16.5zM300 578q-44 0 -75.5 30.5t-31.5 73.5t31.5 73.5t75.5 30.5t75.5 -30.5t31.5 -73.5t-31.5 -73.5t-75.5 -30.5zM330 956h104l-98 -127h-62z" />
    <glyph glyph-name="aring.alt" horiz-adv-x="627" 
d="M282 -9q-98 0 -164.5 70.5t-66.5 189.5v8q0 118 69.5 195.5t169.5 77.5q109 0 164 -91v82h83v-523h-83v88q-22 -39 -72 -68t-100 -29zM291 60q71 0 118.5 51t47.5 147v8q0 98 -42.5 147.5t-116.5 49.5q-73 0 -117 -53t-44 -147v-8q0 -94 44 -144.5t110 -50.5zM300 644
q23 0 38 16.5t15 41.5t-15 41.5t-38 16.5t-38 -16.5t-15 -41.5t15 -41.5t38 -16.5zM300 598q-44 0 -75.5 30.5t-31.5 73.5t31.5 73.5t75.5 30.5t75.5 -30.5t31.5 -73.5t-31.5 -73.5t-75.5 -30.5z" />
    <glyph glyph-name="aogonek.alt" horiz-adv-x="615" 
d="M479 -182q-48 0 -76 21t-28 59q0 59 73 100v90q-22 -39 -72 -68t-100 -29q-98 0 -164.5 70.5t-66.5 189.5v8q0 118 69.5 195.5t169.5 77.5q109 0 164 -91v82h83v-518q-77 -46 -77 -91q0 -36 38 -36q31 0 52 11v-59q-29 -12 -65 -12zM285 60q71 0 118.5 51t47.5 147v8
q0 98 -42.5 147.5t-116.5 49.5q-73 0 -117 -53t-44 -147v-8q0 -94 44 -144.5t110 -50.5z" />
    <glyph glyph-name="amacron.alt" horiz-adv-x="615" 
d="M282 -9q-98 0 -164.5 70.5t-66.5 189.5v8q0 118 69.5 195.5t169.5 77.5q109 0 164 -91v82h83v-523h-83v88q-22 -39 -72 -68t-100 -29zM291 60q71 0 118.5 51t47.5 147v8q0 98 -42.5 147.5t-116.5 49.5q-73 0 -117 -53t-44 -147v-8q0 -94 44 -144.5t110 -50.5zM175 712
h262v-64h-262v64z" />
    <glyph glyph-name="agrave.alt" horiz-adv-x="627" 
d="M282 -9q-98 0 -164.5 70.5t-66.5 189.5v8q0 118 69.5 195.5t169.5 77.5q109 0 164 -91v82h83v-523h-83v88q-22 -39 -72 -68t-100 -29zM291 60q71 0 118.5 51t47.5 147v8q0 98 -42.5 147.5t-116.5 49.5q-73 0 -117 -53t-44 -147v-8q0 -94 44 -144.5t110 -50.5zM178 760
h104l62 -147h-62z" />
    <glyph glyph-name="at.uc" horiz-adv-x="927" 
d="M465 -58q-125 0 -218 56t-138.5 144.5t-45.5 193.5q0 176 121.5 295.5t291.5 119.5q172 0 280 -101.5t108 -253.5q0 -65 -17.5 -115t-45.5 -77.5t-58.5 -41t-61.5 -13.5q-55 0 -79.5 21t-31.5 63q-22 -39 -61.5 -65t-83.5 -26q-72 0 -114 45.5t-42 123.5q0 97 55.5 161
t135.5 64q91 0 117 -66l7 58h83l-29 -244q-11 -77 44 -77q46 0 77.5 47t31.5 140q0 132 -83.5 211t-231.5 79t-241.5 -96t-93.5 -250q0 -140 84.5 -234.5t239.5 -94.5q77 0 128 18t99 57h77q-38 -64 -119.5 -103t-184.5 -39zM443 204q49 0 86.5 43t37.5 116q0 109 -101 109
q-48 0 -80.5 -43t-32.5 -117q0 -50 25 -79t65 -29z" />
    <glyph glyph-name="uni045D.bgr" horiz-adv-x="606" 
d="M267 -9q-83 0 -132.5 49t-49.5 152v331h83v-327q0 -69 29.5 -101t91.5 -32q60 0 102 38t42 105v317h83v-523h-83v83q-19 -40 -62.5 -66t-103.5 -26zM159 760h104l62 -147h-62z" />
    <glyph glyph-name="idotaccent" horiz-adv-x="255" 
d="M92 523h83v-523h-83v523zM134 632q-23 0 -39 16t-16 39t16 39t39 16t39 -16t16 -39t-16 -39t-39 -16z" />
    </font>
</defs>
</svg>
