<?xml version="1.0" standalone="no"?>
<!DOCTYPE svg PUBLIC "-//W3C//DTD SVG 1.1//EN" "http://www.w3.org/Graphics/SVG/1.1/DTD/svg11.dtd" >
<svg xmlns="http://www.w3.org/2000/svg" xmlns:xlink="http://www.w3.org/1999/xlink" version="1.1">
<metadata>
Created by FontForge 20150824 at Thu Nov 10 22:48:34 2016
 By Everything Fonts
Copyright (c) 2012 Christian Schwartz for Commercial Type.
</metadata>
<defs>
<font id="GraphikLCGMedium" horiz-adv-x="604" >
  <font-face 
    font-family="GraphikLCGMedium"
    font-weight="500"
    font-stretch="normal"
    units-per-em="1000"
    panose-1="2 11 6 3 3 2 2 6 2 3"
    ascent="821"
    descent="-179"
    x-height="523"
    cap-height="715"
    bbox="-235 -225 1134 1123"
    underline-thickness="50"
    underline-position="-150"
    unicode-range="U+000D-FB02"
  />
<missing-glyph horiz-adv-x="512" 
 />
    <glyph glyph-name="f_f" unicode="ff" horiz-adv-x="671" 
d="M93 432h-71v91h71v63q0 87 45 132t130 45q36 0 69 -10v-94q-30 10 -54 10q-69 0 -69 -77v-69h184v70q0 87 45 132t130 45q37 0 70 -10v-94q-27 9 -55 9q-69 0 -69 -77v-75h119v-91h-119v-432h-121v432h-184v-432h-121v432z" />
    <glyph glyph-name=".notdef" horiz-adv-x="512" 
 />
    <glyph glyph-name=".null" horiz-adv-x="0" 
 />
    <glyph glyph-name="nonmarkingreturn" horiz-adv-x="333" 
 />
    <glyph glyph-name="NULL" horiz-adv-x="0" 
 />
    <glyph glyph-name="NULL" horiz-adv-x="0" 
 />
    <glyph glyph-name="CR" unicode="&#xd;" horiz-adv-x="242" 
 />
    <glyph glyph-name="space" unicode=" " horiz-adv-x="242" 
 />
    <glyph glyph-name="exclam" unicode="!" horiz-adv-x="309" 
d="M152 -7q-33 0 -56.5 22.5t-23.5 54.5q0 33 23.5 55.5t56.5 22.5q34 0 57.5 -22.5t23.5 -55.5q0 -32 -23.5 -54.5t-57.5 -22.5zM86 715h135l-19 -500h-98z" />
    <glyph glyph-name="quotedbl" unicode="&#x22;" horiz-adv-x="413" 
d="M53 715h121l-17 -257h-87zM235 715h121l-17 -257h-86z" />
    <glyph glyph-name="numbersign" unicode="#" horiz-adv-x="536" 
d="M283 266h-83l-24 -167h-89l24 167h-77v98h92l16 110h-82v95h96l22 146h88l-21 -146h83l22 146h89l-22 -146h81v-95h-95l-16 -110h85v-98h-100l-24 -167h-89zM215 364h83l16 110h-83z" />
    <glyph glyph-name="dollar" unicode="$" horiz-adv-x="639" 
d="M286 -9q-121 8 -180.5 70t-68.5 160h124q7 -56 33.5 -90t91.5 -42v225q-115 19 -170 66.5t-55 139.5q0 84 62 140.5t163 62.5v90h67v-91q203 -19 221 -203h-118q-16 90 -103 106v-205q118 -19 176 -66t58 -143q0 -90 -63 -151t-171 -69v-126h-67v126zM464 199
q0 44 -23.5 67.5t-87.5 36.5v-214q51 7 81 36t30 74zM179 531q0 -42 22 -64t85 -36v197q-51 -6 -79 -32t-28 -65z" />
    <glyph glyph-name="percent" unicode="%" horiz-adv-x="805" 
d="M205 456q36 0 56 24t20 69q0 44 -20.5 68.5t-55.5 24.5q-36 0 -56.5 -24.5t-20.5 -68.5q0 -45 20.5 -69t56.5 -24zM204 375q-74 0 -124 49.5t-50 123.5t51 124t124 50t123 -49t50 -123q0 -75 -50 -125t-124 -50zM589 715h84l-460 -715h-85zM597 71q36 0 56 24t20 69
q0 44 -20.5 68.5t-55.5 24.5q-36 0 -56.5 -24.5t-20.5 -68.5q0 -45 20.5 -69t56.5 -24zM596 -10q-74 0 -123.5 49.5t-49.5 123.5t50.5 124t123.5 50t123.5 -49t50.5 -123q0 -75 -50 -125t-125 -50z" />
    <glyph glyph-name="ampersand" unicode="&#x26;" horiz-adv-x="720" 
d="M568 146l120 -146h-153l-60 73q-79 -82 -196 -82q-106 0 -170.5 55.5t-64.5 148.5q0 137 161 212q-56 74 -56 141q0 81 57 127t140 46q76 0 128 -42.5t52 -112.5q0 -118 -149 -182l126 -154l73 140h109zM293 91q70 0 120 59l-152 185q-45 -23 -68 -51.5t-23 -75.5
q0 -55 32 -86t91 -31zM267 547q0 -42 54 -105q51 23 73 50t22 69q0 31 -19 51t-51 20q-35 0 -57 -22t-22 -63z" />
    <glyph glyph-name="quotesingle" unicode="'" horiz-adv-x="233" 
d="M53 715h123l-17 -257h-89z" />
    <glyph glyph-name="parenleft" unicode="(" horiz-adv-x="339" 
d="M213 -148q-166 197 -166 461t166 461h106q-152 -207 -152 -461q0 -258 152 -461h-106z" />
    <glyph glyph-name="parenright" unicode=")" horiz-adv-x="339" 
d="M17 -148q151 202 151 461q0 255 -151 461h105q166 -197 166 -461t-166 -461h-105z" />
    <glyph glyph-name="asterisk" unicode="*" horiz-adv-x="433" 
d="M72 449l85 102l-120 23l27 89l114 -50l-13 130h100l-13 -130l114 50l26 -89l-121 -23l85 -102l-76 -55l-67 118l-64 -118z" />
    <glyph glyph-name="plus" unicode="+" horiz-adv-x="543" 
d="M219 294h-182v94h182v198h101v-198h183v-94h-183v-198h-101v198z" />
    <glyph glyph-name="comma" unicode="," horiz-adv-x="296" 
d="M28 -90l91 237l115 -46l-131 -224z" />
    <glyph glyph-name="hyphen" unicode="-" horiz-adv-x="357" 
d="M56 329h240v-100h-240v100z" />
    <glyph glyph-name="period" unicode="." horiz-adv-x="293" 
d="M144 -7q-33 0 -56 22.5t-23 55.5t23 56t56 23q34 0 57 -23t23 -56t-23 -55.5t-57 -22.5z" />
    <glyph glyph-name="slash" unicode="/" horiz-adv-x="419" 
d="M295 776h103l-302 -924h-102z" />
    <glyph glyph-name="zero" unicode="0" horiz-adv-x="705" 
d="M354 96q163 0 163 246v35q0 116 -42.5 180t-122.5 64q-81 0 -124 -62.5t-43 -182.5v-36q0 -121 43.5 -182.5t125.5 -61.5zM351 -10q-136 0 -218 94.5t-82 254.5v36q0 161 82 255.5t218 94.5t217.5 -93.5t81.5 -253.5v-36q0 -162 -80 -257t-219 -95z" />
    <glyph glyph-name="one" unicode="1" horiz-adv-x="423" 
d="M183 583l-151 -103v117l166 118h119v-715h-134v583z" />
    <glyph glyph-name="two" unicode="2" horiz-adv-x="582" 
d="M15 24l270 285q109 115 109 203q0 51 -28 80t-79 29q-111 0 -128 -142h-122q7 118 73.5 182t180.5 64q110 0 173 -58t63 -153q0 -66 -35.5 -127.5t-104.5 -128.5l-159 -155h304v-103h-517v24z" />
    <glyph glyph-name="three" unicode="3" horiz-adv-x="627" 
d="M304 -10q-125 0 -195 63t-74 168h121q6 -60 41 -95.5t104 -35.5q136 0 136 116q0 117 -129 117h-55v95h51q119 0 119 105q0 46 -28.5 73.5t-82.5 27.5q-56 0 -91.5 -31.5t-41.5 -86.5h-118q6 96 73.5 157.5t179.5 61.5q109 0 172.5 -54.5t63.5 -137.5q0 -111 -116 -156
q65 -15 101.5 -59t36.5 -114q0 -99 -72.5 -156.5t-195.5 -57.5z" />
    <glyph glyph-name="four" unicode="4" horiz-adv-x="645" 
d="M385 145h-354v47l316 523h167v-471h96v-99h-96v-145h-129v145zM387 244v370l-214 -370h214z" />
    <glyph glyph-name="five" unicode="5" horiz-adv-x="608" 
d="M291 -10q-121 0 -185 59t-70 156h124q9 -56 37.5 -84t92.5 -28q61 0 95 39t34 106q0 65 -34.5 103t-94.5 38q-95 0 -149 -62h-68l6 398h434v-105h-332l-1 -194q52 60 154 60q98 0 159 -65t61 -175q0 -113 -73 -179.5t-190 -66.5z" />
    <glyph glyph-name="six" unicode="6" horiz-adv-x="645" 
d="M331 -10q-147 0 -213.5 91t-66.5 244v17q0 182 81.5 282.5t214.5 100.5q99 0 159.5 -48t73.5 -141h-124q-10 44 -35 65t-75 21q-73 0 -116.5 -63.5t-46.5 -184.5q54 92 177 92q103 0 169 -64.5t66 -168.5q0 -109 -71.5 -176t-192.5 -67zM329 88q60 0 97 39t37 103
q0 66 -36 105t-98 39q-61 0 -99.5 -38t-38.5 -98q0 -71 38 -110.5t100 -39.5z" />
    <glyph glyph-name="seven" unicode="7" horiz-adv-x="549" 
d="M362 607h-333v108h500v-16l-260 -699h-137z" />
    <glyph glyph-name="eight" unicode="8" horiz-adv-x="631" 
d="M314 -10q-112 0 -190 56t-78 156q0 67 36 113.5t98 68.5q-106 43 -106 149q0 87 71 139.5t169 52.5q100 0 169.5 -52t69.5 -138q0 -104 -106 -150q133 -49 133 -179q0 -102 -76 -159t-190 -57zM314 90q59 0 96 33t37 91t-37 90t-95 32q-57 0 -96 -32.5t-39 -90.5
t38.5 -90.5t95.5 -32.5zM316 423q50 0 80.5 28t30.5 76q0 45 -32 73.5t-81 28.5t-81 -28t-32 -75t33.5 -75t81.5 -28z" />
    <glyph glyph-name="nine" unicode="9" horiz-adv-x="646" 
d="M302 -9q-109 0 -173 50.5t-77 144.5h125q21 -92 123 -92q155 0 159 245q-54 -90 -176 -90q-105 0 -171 63.5t-66 168.5q0 110 72 177.5t193 67.5q138 0 208.5 -87.5t70.5 -244.5v-37q0 -177 -74.5 -271.5t-213.5 -94.5zM311 342q61 0 99.5 36.5t38.5 96.5q0 71 -38 111.5
t-101 40.5q-60 0 -96.5 -39t-36.5 -103q0 -66 36 -104.5t98 -38.5z" />
    <glyph glyph-name="colon" unicode=":" horiz-adv-x="301" 
d="M148 -7q-33 0 -56 22.5t-23 55.5t23 56t56 23q34 0 57 -23t23 -56t-23 -55.5t-57 -22.5zM148 285q-33 0 -56 23t-23 56t23 55.5t56 22.5q34 0 57 -22.5t23 -55.5t-23 -56t-57 -23z" />
    <glyph glyph-name="semicolon" unicode=";" horiz-adv-x="307" 
d="M17 -90l91 237l114 -46l-131 -224zM163 285q-34 0 -57 23t-23 56t23 55.5t57 22.5q33 0 56.5 -22.5t23.5 -55.5t-23.5 -56t-56.5 -23z" />
    <glyph glyph-name="less" unicode="&#x3c;" horiz-adv-x="511" 
d="M49 309v26l398 228v-112l-234 -128l234 -131v-111z" />
    <glyph glyph-name="equal" unicode="=" horiz-adv-x="517" 
d="M39 276h434v-91h-434v91zM39 463h434v-92h-434v92z" />
    <glyph glyph-name="greater" unicode="&#x3e;" horiz-adv-x="511" 
d="M60 194l234 128l-234 131v111l399 -229v-25l-399 -229v113z" />
    <glyph glyph-name="question" unicode="?" horiz-adv-x="520" 
d="M175 253q0 75 93 167l8 8q24 24 36 37t23 34.5t11 41.5q0 39 -22 61.5t-67 22.5q-47 0 -77 -30.5t-35 -82.5h-116q6 98 69.5 155.5t164.5 57.5q103 0 156.5 -49t53.5 -126q0 -48 -23 -85t-65 -76q-2 -2 -15.5 -14.5t-16 -15.5t-14 -14t-14.5 -15.5t-11 -14.5t-11 -16.5
t-7.5 -16t-6.5 -18t-2 -17.5v-32h-112v38zM230 -7q-34 0 -58 22.5t-24 54.5q0 33 24 55.5t58 22.5q33 0 56.5 -22.5t23.5 -55.5q0 -32 -23.5 -54.5t-56.5 -22.5z" />
    <glyph glyph-name="at" unicode="@" horiz-adv-x="921" 
d="M460 -151q-194 0 -307.5 118t-113.5 290q0 185 129 308.5t307 123.5t291 -103t113 -262q0 -132 -60.5 -197.5t-138.5 -65.5q-60 0 -89.5 21.5t-38.5 62.5q-22 -40 -59 -64.5t-84 -24.5q-75 0 -118.5 47.5t-43.5 131.5q0 101 57 167t140 66q89 0 117 -65l7 57h108
l-31 -260q-11 -74 46 -74q47 0 79.5 49.5t32.5 147.5q0 136 -88 217.5t-240 81.5q-154 0 -255 -101.5t-101 -263.5q0 -146 89.5 -243.5t252.5 -97.5q150 0 244 84h83q-42 -68 -131 -109.5t-197 -41.5zM439 141q44 0 76.5 39.5t32.5 105.5q0 96 -89 96q-43 0 -72 -39
t-29 -105q0 -45 22 -71t59 -26z" />
    <glyph glyph-name="A" unicode="A" horiz-adv-x="707" 
d="M266 715h174l236 -715h-138l-57 177h-273l-56 -177h-125zM239 274h211l-105 332z" />
    <glyph glyph-name="B" unicode="B" horiz-adv-x="649" 
d="M82 715h256q234 0 234 -186v-4q0 -117 -113 -152q73 -16 108 -56.5t35 -112.5v-4q0 -99 -63 -149.5t-182 -50.5h-275v715zM341 95q130 0 130 114v4q0 57 -33 84t-106 27h-120v-229h129zM322 414q65 0 93.5 25t28.5 80v4q0 51 -30 74t-94 23h-108v-206h110z" />
    <glyph glyph-name="C" unicode="C" horiz-adv-x="745" 
d="M395 -10q-166 0 -257.5 98t-91.5 265v8q0 160 98 262.5t249 102.5q128 0 211.5 -64t95.5 -186h-135q-11 73 -52.5 108.5t-118.5 35.5q-94 0 -151 -69.5t-57 -188.5v-8q0 -121 55 -188.5t154 -67.5q76 0 124 38.5t59 112.5h130q-15 -127 -98.5 -193t-214.5 -66z" />
    <glyph glyph-name="D" unicode="D" horiz-adv-x="718" 
d="M293 105q119 0 178 64.5t59 185.5v8q0 247 -238 247h-77v-505h78zM82 715h217q181 0 275.5 -94.5t94.5 -255.5v-9q0 -162 -95 -259t-277 -97h-215v715z" />
    <glyph glyph-name="E" unicode="E" horiz-adv-x="588" 
d="M82 715h447v-105h-314v-196h252v-100h-252v-209h331v-105h-464v715z" />
    <glyph glyph-name="F" unicode="F" horiz-adv-x="563" 
d="M82 715h443v-106h-310v-213h244v-103h-244v-293h-133v715z" />
    <glyph glyph-name="G" unicode="G" horiz-adv-x="779" 
d="M403 -10q-168 0 -262.5 100.5t-94.5 262.5v8q0 160 100 262.5t257 102.5q124 0 209.5 -60t98.5 -181h-133q-23 136 -173 136q-104 0 -162.5 -71t-58.5 -190v-8q0 -118 56.5 -188t164.5 -70q95 0 142 49.5t51 130.5h-180v100h311v-66q0 -148 -87 -233t-239 -85z" />
    <glyph glyph-name="H" unicode="H" horiz-adv-x="755" 
d="M82 715h133v-304h321v304h134v-715h-134v304h-321v-304h-133v715z" />
    <glyph glyph-name="I" unicode="I" horiz-adv-x="311" 
d="M86 715h134v-715h-134v715z" />
    <glyph glyph-name="J" unicode="J" horiz-adv-x="447" 
d="M148 -9q-72 0 -112 21v104q41 -18 92 -18q107 0 107 122v495h134v-498q0 -113 -59 -169.5t-162 -56.5z" />
    <glyph glyph-name="K" unicode="K" horiz-adv-x="663" 
d="M82 715h133v-324l274 325h143l-296 -342l311 -374h-157l-275 334v-334h-133v715z" />
    <glyph glyph-name="L" unicode="L" horiz-adv-x="555" 
d="M82 715h133v-609h305v-106h-438v715z" />
    <glyph glyph-name="M" unicode="M" horiz-adv-x="894" 
d="M82 715h178l188 -488l184 488h176v-715h-133v540l-213 -540h-43l-217 540v-540h-120v715z" />
    <glyph glyph-name="N" unicode="N" horiz-adv-x="749" 
d="M82 715h159l301 -517v517h121v-715h-138l-322 548v-548h-121v715z" />
    <glyph glyph-name="O" unicode="O" horiz-adv-x="818" 
d="M410 97q101 0 160.5 70.5t59.5 187.5v8q0 113 -59.5 184.5t-162.5 71.5q-104 0 -163.5 -70t-59.5 -187v-8q0 -116 63 -186.5t162 -70.5zM408 -10q-162 0 -262 103t-100 260v8q0 158 101.5 261t260.5 103t259.5 -101.5t100.5 -259.5v-8q0 -158 -99.5 -262t-260.5 -104z
" />
    <glyph glyph-name="P" unicode="P" horiz-adv-x="613" 
d="M82 715h230q124 0 194.5 -56t70.5 -165v-4q0 -109 -71 -163.5t-191 -54.5h-100v-272h-133v715zM312 368q135 0 135 122v4q0 118 -135 118h-97v-244h97z" />
    <glyph glyph-name="Q" unicode="Q" horiz-adv-x="818" 
d="M546 14q-66 -24 -138 -24q-162 0 -262 103t-100 260v8q0 157 101.5 260t260.5 103t260 -101.5t101 -258.5v-8q0 -179 -124 -284l79 -85l-80 -78zM409 95q31 0 56 6l-70 76l81 76l88 -95q66 72 66 198v8q0 113 -59.5 184t-162.5 71q-105 0 -164.5 -70t-59.5 -187v-8
q0 -118 63 -188.5t162 -70.5z" />
    <glyph glyph-name="R" unicode="R" horiz-adv-x="659" 
d="M82 715h240q123 0 195 -52t72 -158v-4q0 -149 -159 -192l201 -309h-144l-187 289h-85v-289h-133v715zM322 384q136 0 136 114v4q0 60 -34.5 85t-101.5 25h-107v-228h107z" />
    <glyph glyph-name="S" unicode="S" horiz-adv-x="639" 
d="M325 -10q-139 0 -208.5 62t-78.5 170h128q7 -62 41.5 -97t117.5 -35q60 0 97.5 30t37.5 80t-31 73t-118 37q-133 19 -192.5 65t-59.5 144q0 89 69 147t180 58q237 0 260 -207h-122q-10 57 -42.5 82t-95.5 25q-59 0 -91 -25.5t-32 -68.5q0 -47 29.5 -69.5t118.5 -35.5
q134 -19 194.5 -65t60.5 -149q0 -94 -73.5 -157.5t-189.5 -63.5z" />
    <glyph glyph-name="T" unicode="T" horiz-adv-x="587" 
d="M225 610h-199v105h532v-105h-199v-610h-134v610z" />
    <glyph glyph-name="U" unicode="U" horiz-adv-x="727" 
d="M357 -10q-136 0 -208.5 72t-72.5 210v443h134v-433q0 -99 34 -142t114 -43q81 0 118 43t37 151v424h134v-435q0 -142 -73.5 -216t-216.5 -74z" />
    <glyph glyph-name="V" unicode="V" horiz-adv-x="687" 
d="M23 715h139l186 -580l187 580h125l-242 -715h-154z" />
    <glyph glyph-name="W" unicode="W" horiz-adv-x="959" 
d="M26 715h136l124 -525l139 525h110l142 -528l128 528h124l-179 -715h-133l-141 521l-145 -521h-127z" />
    <glyph glyph-name="X" unicode="X" horiz-adv-x="699" 
d="M266 367l-214 348h150l152 -254l151 254h137l-211 -345l229 -370h-152l-168 279l-168 -279h-136z" />
    <glyph glyph-name="Y" unicode="Y" horiz-adv-x="633" 
d="M254 310l-237 405h147l161 -296l157 296h130l-224 -406v-309h-134v310z" />
    <glyph glyph-name="Z" unicode="Z" horiz-adv-x="612" 
d="M22 18l365 592h-328v105h516v-17l-357 -591h347v-107h-543v18z" />
    <glyph glyph-name="bracketleft" unicode="[" horiz-adv-x="381" 
d="M79 776h256v-91h-134v-742h134v-91h-256v924z" />
    <glyph glyph-name="backslash" unicode="\" horiz-adv-x="419" 
d="M18 776h102l301 -924h-102z" />
    <glyph glyph-name="bracketright" unicode="]" horiz-adv-x="381" 
d="M42 -57h134v742h-134v91h256v-924h-256v91z" />
    <glyph glyph-name="asciicircum" unicode="^" horiz-adv-x="520" 
d="M202 715h113l166 -313h-112l-112 213l-113 -213h-108z" />
    <glyph glyph-name="underscore" unicode="_" horiz-adv-x="414" 
d="M-1 -85h412v-74h-412v74z" />
    <glyph glyph-name="grave" unicode="`" horiz-adv-x="404" 
d="M59 756h134l59 -155h-89z" />
    <glyph glyph-name="a" unicode="a" horiz-adv-x="559" 
d="M209 -10q-77 0 -126 38.5t-49 116.5q0 86 73.5 126t194.5 40h65v27q0 55 -21 80t-74 25q-89 0 -100 -82h-117q8 87 69 130t155 43q209 0 209 -191v-343h-119v64q-58 -74 -160 -74zM238 77q58 0 93.5 28t35.5 78v52h-62q-151 0 -151 -85q0 -73 84 -73z" />
    <glyph glyph-name="b" unicode="b" horiz-adv-x="637" 
d="M364 -10q-60 0 -104.5 26t-66.5 68v-84h-121v765h121v-326q23 40 69.5 67.5t101.5 27.5q101 0 166.5 -71.5t65.5 -194.5v-8q0 -124 -64.5 -197t-167.5 -73zM334 86q67 0 102.5 44t35.5 128v8q0 84 -38.5 128.5t-100.5 44.5q-66 0 -105 -44t-39 -129v-8q0 -85 38.5 -128.5
t106.5 -43.5z" />
    <glyph glyph-name="c" unicode="c" horiz-adv-x="579" 
d="M301 -10q-115 0 -189.5 71.5t-74.5 193.5v8q0 121 75.5 196t188.5 75q96 0 163 -47.5t76 -148.5h-117q-15 99 -120 99q-63 0 -102.5 -46t-39.5 -126v-8q0 -85 38.5 -129.5t106.5 -44.5q50 0 85 29t41 83h111q-6 -91 -72 -148t-170 -57z" />
    <glyph glyph-name="d" unicode="d" horiz-adv-x="637" 
d="M268 -10q-102 0 -166 69t-64 194v8q0 124 65.5 198.5t169.5 74.5q116 0 167 -91v322h121v-765h-121v88q-23 -41 -69.5 -69.5t-102.5 -28.5zM298 86q66 0 106 44t40 129v8q0 85 -37 128.5t-104 43.5t-104 -45.5t-37 -129.5v-8q0 -83 37 -126.5t99 -43.5z" />
    <glyph glyph-name="e" unicode="e" horiz-adv-x="584" 
d="M302 -10q-118 0 -191.5 72t-73.5 194v8q0 120 73.5 195t186.5 75q106 0 176.5 -66t70.5 -198v-35h-383q3 -75 39.5 -115t104.5 -40q106 0 120 80h117q-13 -83 -75.5 -126.5t-164.5 -43.5zM424 316q-10 130 -127 130q-54 0 -89.5 -34.5t-44.5 -95.5h261z" />
    <glyph glyph-name="f" unicode="f" horiz-adv-x="366" 
d="M93 432h-71v91h71v70q0 87 45.5 132t130.5 45q36 0 69 -10v-94q-27 9 -55 9q-69 0 -69 -77v-75h119v-91h-119v-432h-121v432z" />
    <glyph glyph-name="g" unicode="g" horiz-adv-x="637" 
d="M295 -192q-117 0 -179.5 47t-72.5 127h122q17 -82 129 -82q146 0 146 141v77q-23 -40 -69.5 -68.5t-101.5 -28.5q-100 0 -166 68.5t-66 180.5v7q0 111 66.5 184t168.5 73q114 0 168 -91v80h121v-484q-1 -114 -71 -172.5t-195 -58.5zM299 114q64 0 104.5 43t40.5 117v7
q0 75 -37.5 116.5t-103.5 41.5q-67 0 -104.5 -43.5t-37.5 -116.5v-8q0 -71 39 -114t99 -43z" />
    <glyph glyph-name="h" unicode="h" horiz-adv-x="612" 
d="M72 765h121v-325q20 41 63.5 67.5t105.5 26.5q83 0 131 -50.5t48 -154.5v-329h-121v318q0 60 -25 87.5t-79 27.5t-88.5 -32.5t-34.5 -92.5v-308h-121v765z" />
    <glyph glyph-name="i" unicode="i" horiz-adv-x="275" 
d="M75 523h121v-523h-121v523zM134 609q-30 0 -51 20t-21 49q0 30 21 50t51 20t51 -20t21 -50q0 -29 -21 -49t-51 -20z" />
    <glyph glyph-name="j" unicode="j" horiz-adv-x="275" 
d="M3 -95q72 5 72 74v544h121v-541q0 -84 -44.5 -126t-148.5 -44v93zM134 609q-30 0 -51 20t-21 49q0 30 21 50t51 20t51 -20t21 -50q0 -29 -21 -49t-51 -20z" />
    <glyph glyph-name="k" unicode="k" horiz-adv-x="544" 
d="M72 765h121v-472l187 230h132l-203 -240l220 -283h-140l-196 257v-257h-121v765z" />
    <glyph glyph-name="l" unicode="l" horiz-adv-x="275" 
d="M75 765h121v-765h-121v765z" />
    <glyph glyph-name="m" unicode="m" horiz-adv-x="922" 
d="M72 523h121v-80q20 39 62 65t97 26q109 0 148 -94q29 46 77 70t100 24q77 0 125.5 -50.5t48.5 -152.5v-331h-121v323q0 110 -93 110q-48 0 -81.5 -31.5t-33.5 -88.5v-313h-121v323q0 110 -93 110q-48 0 -81.5 -31.5t-33.5 -88.5v-313h-121v523z" />
    <glyph glyph-name="n" unicode="n" horiz-adv-x="612" 
d="M72 523h121v-83q20 41 63.5 67.5t105.5 26.5q83 0 131 -50.5t48 -154.5v-329h-121v318q0 60 -25 87.5t-79 27.5t-88.5 -32.5t-34.5 -92.5v-308h-121v523z" />
    <glyph glyph-name="o" unicode="o" horiz-adv-x="615" 
d="M306 84q68 0 106 46.5t38 127.5v7q0 81 -38 127.5t-106 46.5t-106.5 -46t-38.5 -127v-8q0 -81 38 -127.5t107 -46.5zM305 -10q-117 0 -192.5 73.5t-75.5 192.5v8q0 120 76 195t193 75q116 0 192 -74t76 -193v-8q0 -121 -76 -195t-193 -74z" />
    <glyph glyph-name="p" unicode="p" horiz-adv-x="637" 
d="M72 523h121v-84q23 40 69.5 67.5t101.5 27.5q101 0 166.5 -71.5t65.5 -194.5v-8q0 -124 -64.5 -197t-167.5 -73q-60 0 -104.5 25.5t-66.5 66.5v-261h-121v702zM334 86q67 0 102.5 44t35.5 128v8q0 84 -38.5 128.5t-100.5 44.5q-66 0 -105 -44t-39 -129v-8
q0 -85 38.5 -128.5t106.5 -43.5z" />
    <glyph glyph-name="q" unicode="q" horiz-adv-x="637" 
d="M440 86q-23 -40 -69.5 -68t-102.5 -28q-102 0 -166 69t-64 194v8q0 124 65.5 198.5t169.5 74.5q116 0 167 -91v80h121v-702h-121v265zM298 86q66 0 106 44t40 129v8q0 85 -37 128.5t-104 43.5t-104 -45.5t-37 -129.5v-8q0 -83 37 -126.5t99 -43.5z" />
    <glyph glyph-name="r" unicode="r" horiz-adv-x="401" 
d="M72 523h121v-98q52 105 170 106v-113q-84 0 -127 -33.5t-43 -112.5v-272h-121v523z" />
    <glyph glyph-name="s" unicode="s" horiz-adv-x="498" 
d="M251 -10q-102 0 -158.5 44.5t-60.5 128.5h114q6 -42 29 -63t75 -21q94 0 94 67q0 31 -25.5 46.5t-86.5 25.5q-105 16 -147 51t-42 108q0 74 58.5 115.5t137.5 41.5q188 0 205 -158h-112q-8 37 -30 53.5t-63 16.5q-39 0 -61 -17t-22 -45q0 -29 22.5 -43t85.5 -24
q102 -16 149 -49t47 -111q0 -80 -54 -123.5t-155 -43.5z" />
    <glyph glyph-name="t" unicode="t" horiz-adv-x="373" 
d="M250 -9q-78 0 -118 40t-40 115v286h-70v91h70v115h121v-115h115v-91h-115v-275q0 -67 60 -67q36 0 59 10v-96q-35 -13 -82 -13z" />
    <glyph glyph-name="u" unicode="u" horiz-adv-x="609" 
d="M247 -10q-82 0 -131 49t-49 149v335h121v-321q0 -60 25 -87.5t78 -27.5q52 0 87 33t35 92v311h121v-523h-121v82q-49 -92 -166 -92z" />
    <glyph glyph-name="v" unicode="v" horiz-adv-x="561" 
d="M18 523h130l137 -399l135 399h119l-189 -523h-141z" />
    <glyph glyph-name="w" unicode="w" horiz-adv-x="818" 
d="M20 523h129l104 -378l111 378h101l102 -378l109 378h118l-164 -523h-123l-97 352l-106 -352h-124z" />
    <glyph glyph-name="x" unicode="x" horiz-adv-x="560" 
d="M203 268l-170 255h140l109 -169l108 169h127l-169 -246l187 -277h-141l-122 189l-125 -189h-126z" />
    <glyph glyph-name="y" unicode="y" horiz-adv-x="557" 
d="M225 53l-207 470h131l139 -337l128 337h118l-285 -702h-119z" />
    <glyph glyph-name="z" unicode="z" horiz-adv-x="497" 
d="M17 14l277 413h-250v96h429v-17l-276 -409h268v-97h-448v14z" />
    <glyph glyph-name="braceleft" unicode="{" horiz-adv-x="400" 
d="M354 -148q-130 0 -187.5 52t-37.5 165l17 96q8 45 -18.5 75.5t-91.5 30.5v87q65 0 92 31t18 75l-17 96q-20 114 37 165.5t188 51.5v-89q-70 -2 -94 -28.5t-14 -98.5l17 -110q8 -53 -19.5 -88t-80.5 -48q54 -12 81 -47.5t19 -88.5l-17 -109q-10 -73 14 -100t94 -29v-89z
" />
    <glyph glyph-name="bar" unicode="|" horiz-adv-x="263" 
d="M84 776h90v-924h-90v924z" />
    <glyph glyph-name="braceright" unicode="}" horiz-adv-x="400" 
d="M42 -59q69 2 94 29.5t13 99.5l-16 109q-8 53 19 88.5t81 47.5q-54 13 -81 48t-19 88l16 110q12 71 -13 98t-94 29v89q131 0 188 -51.5t37 -165.5l-17 -96q-9 -44 17.5 -75t91.5 -31v-87q-65 0 -91 -30.5t-18 -75.5l17 -96q20 -113 -37.5 -165t-187.5 -52v89z" />
    <glyph glyph-name="asciitilde" unicode="~" horiz-adv-x="478" 
d="M38 220q6 77 40 116t82 39q38 0 85.5 -24t59.5 -24q18 0 30.5 13t14.5 37h86q-4 -75 -39 -115.5t-81 -40.5q-41 0 -87.5 24.5t-59.5 24.5q-39 0 -45 -50h-86z" />
    <glyph glyph-name="uni00A0" unicode="&#xa0;" horiz-adv-x="275" 
 />
    <glyph glyph-name="exclamdown" unicode="&#xa1;" horiz-adv-x="310" 
d="M153 604q33 0 56.5 -22t23.5 -54q0 -33 -23.5 -55.5t-56.5 -22.5q-34 0 -57.5 22.5t-23.5 55.5q0 32 23.5 54t57.5 22zM219 -117h-135l19 500h98z" />
    <glyph glyph-name="cent" unicode="&#xa2;" horiz-adv-x="581" 
d="M270 -8q-105 10 -169 80t-64 184v8q0 112 65.5 184t167.5 84v97h67v-97q84 -6 141.5 -55t66.5 -139h-114q-12 81 -94 100v-356q42 9 69.5 37.5t32.5 75.5h109q-6 -84 -63 -139.5t-148 -63.5v-127h-67v127zM159 256q0 -73 29.5 -116.5t81.5 -55.5v353q-51 -12 -81 -57
t-30 -116v-8z" />
    <glyph glyph-name="sterling" unicode="&#xa3;" horiz-adv-x="624" 
d="M42 389h60q-16 64 -16 120q0 97 69 156t173 59q109 0 170.5 -56.5t67.5 -152.5h-125q-9 55 -34.5 80.5t-75.5 25.5t-80.5 -31.5t-30.5 -85.5q0 -48 13 -115h199v-85h-182q10 -46 10 -102q0 -30 -12 -63q21 -6 51 -17t51.5 -17.5t37.5 -6.5q75 0 80 75h117
q-4 -81 -50 -131.5t-125 -50.5q-52 0 -124 29.5t-93 29.5q-27 0 -41.5 -14.5t-17.5 -35.5h-104q4 49 30.5 90t74.5 54q10 24 10 59q0 44 -18 101h-85v85z" />
    <glyph glyph-name="yen" unicode="&#xa5;" horiz-adv-x="608" 
d="M76 350h149l-204 365h145l147 -288l141 288h128l-192 -365h150v-64h-166v-67h166v-64h-166v-155h-132v155h-166v64h166v67h-166v64z" />
    <glyph glyph-name="brokenbar" unicode="&#xa6;" horiz-adv-x="268" 
d="M84 299h90v-447h-90v447zM84 776h90v-407h-90v407z" />
    <glyph glyph-name="section" unicode="&#xa7;" horiz-adv-x="569" 
d="M276 -137q-92 0 -145.5 45t-55.5 126h116q6 -81 86 -81q41 0 62.5 20t21.5 53t-26.5 52t-100.5 37q-100 25 -150 65t-50 115q0 49 29.5 84t81.5 51q-55 44 -55 123q0 76 58 123.5t141 47.5q91 0 142.5 -43.5t54.5 -123.5h-115q-3 38 -21.5 57.5t-61.5 19.5
q-42 0 -62.5 -20.5t-20.5 -53.5t24.5 -52t97.5 -36q103 -25 154 -63.5t51 -117.5q0 -46 -29.5 -82t-80.5 -54q54 -43 54 -122q0 -73 -57 -121.5t-143 -48.5zM343 200q71 17 71 76q0 33 -26.5 51t-88.5 36l-77 22q-33 -7 -51.5 -27t-18.5 -49q0 -32 26.5 -49.5t89.5 -36.5z
" />
    <glyph glyph-name="dieresis" unicode="&#xa8;" horiz-adv-x="404" 
d="M101 613q-27 0 -46.5 19t-19.5 46q0 26 19.5 45.5t46.5 19.5t46.5 -19.5t19.5 -45.5q0 -27 -19.5 -46t-46.5 -19zM299 613q-28 0 -47 19t-19 46q0 26 19.5 45.5t46.5 19.5t46.5 -19.5t19.5 -45.5q0 -27 -19.5 -46t-46.5 -19z" />
    <glyph glyph-name="copyright" unicode="&#xa9;" horiz-adv-x="847" 
d="M425 153q-95 0 -147.5 54t-52.5 146v8q0 90 56 145.5t142 55.5q76 0 123.5 -37t53.5 -109h-96q-10 70 -81 70q-46 0 -72 -32.5t-26 -92.5v-7q0 -60 25.5 -92t73.5 -32q78 0 88 74h92q-6 -73 -54 -112t-125 -39zM421 32q132 0 226.5 92.5t94.5 234.5q0 141 -92.5 232.5
t-226.5 91.5q-136 0 -228.5 -92t-92.5 -234q0 -143 94 -234t225 -91zM421 -13q-157 0 -265 106.5t-108 263.5q0 156 108.5 263.5t266.5 107.5t265.5 -107t107.5 -262q0 -158 -109 -265t-266 -107z" />
    <glyph glyph-name="ordfeminine" unicode="&#xaa;" horiz-adv-x="448" 
d="M169 289q-62 0 -101 31t-39 93q0 132 215 132h51v22q0 39 -16.5 57.5t-53.5 18.5q-63 0 -75 -59h-104q6 69 56 104.5t128 35.5q173 0 173 -155v-271h-107v50q-40 -59 -127 -59zM200 368q42 0 68.5 20t26.5 56v37h-48q-109 0 -109 -61q0 -52 62 -52z" />
    <glyph glyph-name="guillemotleft" unicode="&#xab;" horiz-adv-x="496" 
d="M48 261l128 183h95l-123 -183l123 -183h-95zM227 261l128 183h95l-123 -183l123 -183h-95z" />
    <glyph glyph-name="uni00AD" unicode="&#xad;" horiz-adv-x="357" 
d="M56 329h240v-100h-240v100z" />
    <glyph glyph-name="registered" unicode="&#xae;" horiz-adv-x="519" 
d="M178 615h82q87 0 87 -68v-1q0 -43 -42 -59l55 -91h-59l-48 81h-19v-81h-56v219zM258 515q34 0 34 28v1q0 28 -34 28h-24v-57h24zM258 319q78 0 130.5 51.5t52.5 132.5t-51.5 132.5t-131.5 51.5q-81 0 -132.5 -51.5t-51.5 -133.5q0 -81 52.5 -132t131.5 -51zM258 281
q-94 0 -159.5 64t-65.5 157q0 92 65.5 157.5t159.5 65.5q95 0 159.5 -64.5t64.5 -157.5q0 -94 -65 -158t-159 -64z" />
    <glyph glyph-name="macron" unicode="&#xaf;" horiz-adv-x="404" 
d="M60 712h280v-78h-280v78z" />
    <glyph glyph-name="degree" unicode="&#xb0;" horiz-adv-x="441" 
d="M219 459q39 0 64.5 28.5t25.5 71.5q0 44 -25 73t-65 29q-41 0 -67 -29t-26 -73q0 -43 26 -71.5t67 -28.5zM219 396q-70 0 -119.5 48t-49.5 115q0 68 49.5 116.5t119.5 48.5t119 -48.5t49 -116.5q0 -67 -49 -115t-119 -48z" />
    <glyph glyph-name="plusminus" unicode="&#xb1;" horiz-adv-x="543" 
d="M219 332h-182v94h182v176h101v-176h183v-94h-183v-175h-101v175zM37 89h467v-89h-467v89z" />
    <glyph glyph-name="twosuperior" unicode="&#xb2;" horiz-adv-x="317" 
d="M7 373l128 135q59 61 59 99q0 43 -42 43q-45 0 -52 -61h-85q3 63 40.5 97t100.5 34q62 0 95.5 -30t33.5 -79q0 -61 -70 -126l-58 -57h131v-68h-281v13z" />
    <glyph glyph-name="threesuperior" unicode="&#xb3;" horiz-adv-x="340" 
d="M166 354q-72 0 -108 32t-38 88h83q5 -54 58 -54q54 0 54 47q0 45 -54 45h-28v58h27q52 0 52 43q0 40 -45 40q-48 0 -54 -48h-83q4 52 40.5 83.5t98.5 31.5t96.5 -26.5t34.5 -70.5q0 -57 -61 -77q32 -6 51 -27.5t19 -54.5q0 -52 -37.5 -81t-105.5 -29z" />
    <glyph glyph-name="acute" unicode="&#xb4;" horiz-adv-x="404" 
d="M207 756h134l-104 -155h-89z" />
    <glyph glyph-name="mu" unicode="&#xb5;" horiz-adv-x="609" 
d="M72 523h120v-327q0 -111 103 -111q52 0 87.5 33t35.5 93v312h120v-523h-119v78q-39 -82 -134 -82q-65 0 -93 48v-223h-120v702z" />
    <glyph glyph-name="paragraph" unicode="&#xb6;" horiz-adv-x="577" 
d="M268 339h-11q-101 0 -160 47.5t-59 137.5q0 93 60 142t159 49h232v-815h-72v755h-78v-755h-71v439z" />
    <glyph glyph-name="periodcentered" unicode="&#xb7;" horiz-adv-x="293" 
d="M144 248q-33 0 -56 23t-23 56t23 55.5t56 22.5q34 0 57 -22.5t23 -55.5t-23 -56t-57 -23z" />
    <glyph glyph-name="cedilla" unicode="&#xb8;" horiz-adv-x="404" 
d="M206 -219q-48 0 -76.5 23t-33.5 65h66q6 -33 40 -33q17 0 27 9.5t10 24.5q0 14 -9.5 23t-25.5 9q-14 0 -30 -9l-34 32l44 75h60l-29 -50q42 4 71 -17t29 -66q0 -41 -30 -63.5t-79 -22.5z" />
    <glyph glyph-name="onesuperior" unicode="&#xb9;" horiz-adv-x="257" 
d="M104 625l-82 -51v78l94 63h82v-355h-94v265z" />
    <glyph glyph-name="ordmasculine" unicode="&#xba;" horiz-adv-x="508" 
d="M253 374q50 0 77 34.5t27 95.5v6q0 61 -27 95t-77 34t-78 -34t-28 -95v-6q0 -61 27.5 -95.5t78.5 -34.5zM252 289q-95 0 -156.5 58.5t-61.5 153.5v6q0 98 62 157.5t157 59.5q94 0 155.5 -59t61.5 -154v-6q0 -97 -61.5 -156.5t-156.5 -59.5z" />
    <glyph glyph-name="guillemotright" unicode="&#xbb;" horiz-adv-x="496" 
d="M166 261l-123 183h95l128 -183l-128 -183h-95zM344 261l-123 183h95l128 -183l-128 -183h-95z" />
    <glyph glyph-name="onequarter" unicode="&#xbc;" horiz-adv-x="728" 
d="M106 625l-82 -51v78l94 63h82v-355h-94v265zM583 715h77l-528 -715h-77zM566 69h-178v34l154 252h113v-222h46v-64h-46v-69h-89v69zM568 133v157l-91 -157h91z" />
    <glyph glyph-name="onehalf" unicode="&#xbd;" horiz-adv-x="732" 
d="M106 625l-82 -51v78l94 63h82v-355h-94v265zM570 715h77l-528 -715h-77zM418 13l128 135q59 61 59 99q0 43 -42 43q-45 0 -52 -61h-85q3 63 40.5 97t100.5 34q62 0 95.5 -30t33.5 -79q0 -61 -70 -126l-58 -57h131v-68h-281v13z" />
    <glyph glyph-name="threequarters" unicode="&#xbe;" horiz-adv-x="742" 
d="M169 354q-72 0 -108 32t-38 88h83q5 -54 58 -54q54 0 54 47q0 45 -54 45h-28v58h27q52 0 52 43q0 40 -45 40q-48 0 -54 -48h-83q4 52 40.5 83.5t98.5 31.5t96.5 -26.5t34.5 -70.5q0 -57 -61 -77q32 -6 51 -27.5t19 -54.5q0 -52 -37.5 -81t-105.5 -29zM624 715h77
l-528 -715h-77zM577 69h-178v34l154 252h113v-222h46v-64h-46v-69h-89v69zM579 133v157l-91 -157h91z" />
    <glyph glyph-name="questiondown" unicode="&#xbf;" horiz-adv-x="520" 
d="M340 346q0 -75 -93 -167l-8 -8q-24 -24 -36 -37t-23 -34.5t-11 -41.5q0 -40 22.5 -62t66.5 -22q47 0 77 30.5t35 82.5h116q-6 -98 -69.5 -155.5t-164.5 -57.5q-103 0 -156.5 49t-53.5 126q0 48 23 85t65 76q2 2 15.5 14.5t16 15.5t14 14t14.5 15.5t11 14.5t11 16.5
t7.5 16t6.5 18t2 17.5v32h112v-38zM285 605q34 0 58 -22t24 -54q0 -33 -24 -55.5t-58 -22.5q-33 0 -56.5 22.5t-23.5 55.5q0 32 23.5 54t56.5 22z" />
    <glyph glyph-name="Agrave" unicode="&#xc0;" horiz-adv-x="707" 
d="M266 715h174l236 -715h-138l-57 177h-273l-56 -177h-125zM239 274h211l-105 332zM213 901h136l53 -135h-91z" />
    <glyph glyph-name="Aacute" unicode="&#xc1;" horiz-adv-x="707" 
d="M266 715h174l236 -715h-138l-57 177h-273l-56 -177h-125zM239 274h211l-105 332zM352 901h136l-99 -135h-91z" />
    <glyph glyph-name="Acircumflex" unicode="&#xc2;" horiz-adv-x="707" 
d="M266 715h174l236 -715h-138l-57 177h-273l-56 -177h-125zM239 274h211l-105 332zM299 901h104l108 -135h-88l-74 55l-75 -55h-86z" />
    <glyph glyph-name="Atilde" unicode="&#xc3;" horiz-adv-x="707" 
d="M266 715h174l236 -715h-138l-57 177h-273l-56 -177h-125zM239 274h211l-105 332zM408 768q-26 0 -63 19.5t-49 19.5q-14 0 -24 -11t-13 -29h-76q5 61 35.5 96t73.5 35q25 0 62 -20t51 -20q29 0 36 40h77q-6 -61 -36.5 -95.5t-73.5 -34.5z" />
    <glyph glyph-name="Adieresis" unicode="&#xc4;" horiz-adv-x="707" 
d="M266 715h174l236 -715h-138l-57 177h-273l-56 -177h-125zM239 274h211l-105 332zM244 777q-27 0 -46.5 19t-19.5 46t19.5 46t46.5 19t46.5 -19t19.5 -46t-19.5 -46t-46.5 -19zM455 777q-27 0 -46.5 19t-19.5 46t19.5 46t46.5 19t46.5 -19t19.5 -46t-19.5 -46t-46.5 -19z
" />
    <glyph glyph-name="Aring" unicode="&#xc5;" horiz-adv-x="707" 
d="M266 715h174l236 -715h-138l-57 177h-273l-56 -177h-125zM239 274h211l-105 332zM350 807q22 0 36 15.5t14 39.5t-14 39.5t-36 15.5q-23 0 -36.5 -15.5t-13.5 -39.5t13.5 -39.5t36.5 -15.5zM350 753q-46 0 -79 32t-33 77t33 77t79 32t79 -32t33 -77t-33 -77t-79 -32z" />
    <glyph glyph-name="AE" unicode="&#xc6;" horiz-adv-x="975" 
d="M373 715h543v-105h-312v-196h250v-100h-250v-209h329v-105h-462v183h-232l-87 -183h-130zM285 278h186v332h-27z" />
    <glyph glyph-name="Ccedilla" unicode="&#xc7;" horiz-adv-x="745" 
d="M380 -219q-48 0 -76.5 23t-33.5 65h66q6 -33 40 -33q17 0 27 9.5t10 24.5q0 14 -9.5 23t-25.5 9q-14 0 -30 -9l-34 32l39 67q-147 12 -227 108.5t-80 252.5v8q0 160 98 262.5t249 102.5q128 0 211.5 -64t95.5 -186h-135q-11 73 -52.5 108.5t-118.5 35.5q-94 0 -151 -69.5
t-57 -188.5v-8q0 -121 55 -188.5t154 -67.5q76 0 124 38.5t59 112.5h130q-15 -122 -93.5 -188t-202.5 -71l-23 -40q42 4 71 -17t29 -66q0 -41 -30 -63.5t-79 -22.5z" />
    <glyph glyph-name="Egrave" unicode="&#xc8;" horiz-adv-x="588" 
d="M82 715h447v-105h-314v-196h252v-100h-252v-209h331v-105h-464v715zM176 901h136l53 -135h-91z" />
    <glyph glyph-name="Eacute" unicode="&#xc9;" horiz-adv-x="588" 
d="M82 715h447v-105h-314v-196h252v-100h-252v-209h331v-105h-464v715zM315 901h136l-99 -135h-91z" />
    <glyph glyph-name="Ecircumflex" unicode="&#xca;" horiz-adv-x="588" 
d="M82 715h447v-105h-314v-196h252v-100h-252v-209h331v-105h-464v715zM262 901h104l108 -135h-88l-74 55l-75 -55h-86z" />
    <glyph glyph-name="Edieresis" unicode="&#xcb;" horiz-adv-x="588" 
d="M82 715h447v-105h-314v-196h252v-100h-252v-209h331v-105h-464v715zM207 777q-27 0 -46.5 19t-19.5 46t19.5 46t46.5 19t46.5 -19t19.5 -46t-19.5 -46t-46.5 -19zM418 777q-27 0 -46.5 19t-19.5 46t19.5 46t46.5 19t46.5 -19t19.5 -46t-19.5 -46t-46.5 -19z" />
    <glyph glyph-name="Igrave" unicode="&#xcc;" horiz-adv-x="311" 
d="M86 715h134v-715h-134v715zM16 901h136l53 -135h-91z" />
    <glyph glyph-name="Iacute" unicode="&#xcd;" horiz-adv-x="311" 
d="M86 715h134v-715h-134v715zM155 901h136l-99 -135h-91z" />
    <glyph glyph-name="Icircumflex" unicode="&#xce;" horiz-adv-x="311" 
d="M86 715h134v-715h-134v715zM102 901h104l108 -135h-88l-74 55l-75 -55h-86z" />
    <glyph glyph-name="Idieresis" unicode="&#xcf;" horiz-adv-x="311" 
d="M86 715h134v-715h-134v715zM47 777q-27 0 -46.5 19t-19.5 46t19.5 46t46.5 19t46.5 -19t19.5 -46t-19.5 -46t-46.5 -19zM258 777q-27 0 -46.5 19t-19.5 46t19.5 46t46.5 19t46.5 -19t19.5 -46t-19.5 -46t-46.5 -19z" />
    <glyph glyph-name="Eth" unicode="&#xd0;" horiz-adv-x="743" 
d="M32 406h69v309h217q181 0 275.5 -94.5t94.5 -255.5v-9q0 -162 -94 -259t-277 -97h-216v311h-69v95zM313 105q119 0 177.5 64.5t58.5 185.5v8q0 247 -237 247h-79v-204h173v-95h-173v-206h80z" />
    <glyph glyph-name="Ntilde" unicode="&#xd1;" horiz-adv-x="749" 
d="M82 715h159l301 -517v517h121v-715h-138l-322 548v-548h-121v715zM443 768q-26 0 -63 19.5t-49 19.5q-14 0 -24 -11t-13 -29h-76q5 61 35.5 96t73.5 35q25 0 62 -20t51 -20q29 0 36 40h77q-6 -61 -36.5 -95.5t-73.5 -34.5z" />
    <glyph glyph-name="Ograve" unicode="&#xd2;" horiz-adv-x="818" 
d="M410 97q101 0 160.5 70.5t59.5 187.5v8q0 113 -59.5 184.5t-162.5 71.5q-104 0 -163.5 -70t-59.5 -187v-8q0 -116 63 -186.5t162 -70.5zM408 -10q-162 0 -262 103t-100 260v8q0 158 101.5 261t260.5 103t259.5 -101.5t100.5 -259.5v-8q0 -158 -99.5 -262t-260.5 -104z
M269 901h136l53 -135h-91z" />
    <glyph glyph-name="Oacute" unicode="&#xd3;" horiz-adv-x="818" 
d="M410 97q101 0 160.5 70.5t59.5 187.5v8q0 113 -59.5 184.5t-162.5 71.5q-104 0 -163.5 -70t-59.5 -187v-8q0 -116 63 -186.5t162 -70.5zM408 -10q-162 0 -262 103t-100 260v8q0 158 101.5 261t260.5 103t259.5 -101.5t100.5 -259.5v-8q0 -158 -99.5 -262t-260.5 -104z
M408 901h136l-99 -135h-91z" />
    <glyph glyph-name="Ocircumflex" unicode="&#xd4;" horiz-adv-x="818" 
d="M410 97q101 0 160.5 70.5t59.5 187.5v8q0 113 -59.5 184.5t-162.5 71.5q-104 0 -163.5 -70t-59.5 -187v-8q0 -116 63 -186.5t162 -70.5zM408 -10q-162 0 -262 103t-100 260v8q0 158 101.5 261t260.5 103t259.5 -101.5t100.5 -259.5v-8q0 -158 -99.5 -262t-260.5 -104z
M355 901h104l108 -135h-88l-74 55l-75 -55h-86z" />
    <glyph glyph-name="Otilde" unicode="&#xd5;" horiz-adv-x="818" 
d="M410 97q101 0 160.5 70.5t59.5 187.5v8q0 113 -59.5 184.5t-162.5 71.5q-104 0 -163.5 -70t-59.5 -187v-8q0 -116 63 -186.5t162 -70.5zM408 -10q-162 0 -262 103t-100 260v8q0 158 101.5 261t260.5 103t259.5 -101.5t100.5 -259.5v-8q0 -158 -99.5 -262t-260.5 -104z
M464 768q-26 0 -63 19.5t-49 19.5q-14 0 -24 -11t-13 -29h-76q5 61 35.5 96t73.5 35q25 0 62 -20t51 -20q29 0 36 40h77q-6 -61 -36.5 -95.5t-73.5 -34.5z" />
    <glyph glyph-name="Odieresis" unicode="&#xd6;" horiz-adv-x="818" 
d="M410 97q101 0 160.5 70.5t59.5 187.5v8q0 113 -59.5 184.5t-162.5 71.5q-104 0 -163.5 -70t-59.5 -187v-8q0 -116 63 -186.5t162 -70.5zM408 -10q-162 0 -262 103t-100 260v8q0 158 101.5 261t260.5 103t259.5 -101.5t100.5 -259.5v-8q0 -158 -99.5 -262t-260.5 -104z
M300 777q-27 0 -46.5 19t-19.5 46t19.5 46t46.5 19t46.5 -19t19.5 -46t-19.5 -46t-46.5 -19zM511 777q-27 0 -46.5 19t-19.5 46t19.5 46t46.5 19t46.5 -19t19.5 -46t-19.5 -46t-46.5 -19z" />
    <glyph glyph-name="multiply" unicode="&#xd7;" horiz-adv-x="513" 
d="M35 181l154 153l-155 154l66 67l154 -155l154 154l66 -66l-154 -154l155 -154l-67 -66l-154 155l-153 -154z" />
    <glyph glyph-name="Oslash" unicode="&#xd8;" horiz-adv-x="818" 
d="M34 18l91 98q-79 99 -79 237v8q0 157 101.5 260t260.5 103q126 0 219 -67l78 84l50 -50l-75 -81q89 -102 89 -246v-8q0 -158 -100 -262t-261 -104q-137 0 -232 76l-92 -99zM409 97q102 0 162 70.5t60 188.5v8q0 92 -37 154l-336 -364q60 -57 151 -57zM184 354
q0 -83 31 -141l333 359q-56 47 -140 47q-105 0 -164.5 -70t-59.5 -187v-8z" />
    <glyph glyph-name="Ugrave" unicode="&#xd9;" horiz-adv-x="727" 
d="M357 -10q-136 0 -208.5 72t-72.5 210v443h134v-433q0 -99 34 -142t114 -43q81 0 118 43t37 151v424h134v-435q0 -142 -73.5 -216t-216.5 -74zM223 901h136l53 -135h-91z" />
    <glyph glyph-name="Uacute" unicode="&#xda;" horiz-adv-x="727" 
d="M357 -10q-136 0 -208.5 72t-72.5 210v443h134v-433q0 -99 34 -142t114 -43q81 0 118 43t37 151v424h134v-435q0 -142 -73.5 -216t-216.5 -74zM362 901h136l-99 -135h-91z" />
    <glyph glyph-name="Ucircumflex" unicode="&#xdb;" horiz-adv-x="727" 
d="M357 -10q-136 0 -208.5 72t-72.5 210v443h134v-433q0 -99 34 -142t114 -43q81 0 118 43t37 151v424h134v-435q0 -142 -73.5 -216t-216.5 -74zM309 901h104l108 -135h-88l-74 55l-75 -55h-86z" />
    <glyph glyph-name="Udieresis" unicode="&#xdc;" horiz-adv-x="727" 
d="M357 -10q-136 0 -208.5 72t-72.5 210v443h134v-433q0 -99 34 -142t114 -43q81 0 118 43t37 151v424h134v-435q0 -142 -73.5 -216t-216.5 -74zM254 777q-27 0 -46.5 19t-19.5 46t19.5 46t46.5 19t46.5 -19t19.5 -46t-19.5 -46t-46.5 -19zM465 777q-27 0 -46.5 19t-19.5 46
t19.5 46t46.5 19t46.5 -19t19.5 -46t-19.5 -46t-46.5 -19z" />
    <glyph glyph-name="Yacute" unicode="&#xdd;" horiz-adv-x="633" 
d="M254 310l-237 405h147l161 -296l157 296h130l-224 -406v-309h-134v310zM319 901h136l-99 -135h-91z" />
    <glyph glyph-name="Thorn" unicode="&#xde;" horiz-adv-x="613" 
d="M82 715h133v-127h97q125 0 195 -53t70 -162v-4q0 -109 -70.5 -162.5t-191.5 -53.5h-100v-153h-133v715zM312 250q135 0 135 119v4q0 61 -34 88t-101 27h-97v-238h97z" />
    <glyph glyph-name="germandbls" unicode="&#xdf;" horiz-adv-x="612" 
d="M353 -9q-61 0 -93 14v96q34 -15 72 -15q117 0 117 137v7q0 75 -47 114.5t-127 37.5v95q66 -2 97 31.5t31 78.5v4q0 45 -26.5 70t-77.5 25q-48 0 -77 -32t-29 -88v-566h-121v557q0 102 66.5 159.5t165.5 57.5q97 0 155.5 -48.5t58.5 -132.5v-3q0 -50 -32 -92.5t-87 -60.5
q77 -19 125.5 -75.5t48.5 -136.5v-6q0 -116 -62 -172t-158 -56z" />
    <glyph glyph-name="agrave" unicode="&#xe0;" horiz-adv-x="559" 
d="M209 -10q-77 0 -126 38.5t-49 116.5q0 86 73.5 126t194.5 40h65v27q0 55 -21 80t-74 25q-89 0 -100 -82h-117q8 87 69 130t155 43q209 0 209 -191v-343h-119v64q-58 -74 -160 -74zM238 77q58 0 93.5 28t35.5 78v52h-62q-151 0 -151 -85q0 -73 84 -73zM136 756h134
l59 -155h-89z" />
    <glyph glyph-name="aacute" unicode="&#xe1;" horiz-adv-x="559" 
d="M209 -10q-77 0 -126 38.5t-49 116.5q0 86 73.5 126t194.5 40h65v27q0 55 -21 80t-74 25q-89 0 -100 -82h-117q8 87 69 130t155 43q209 0 209 -191v-343h-119v64q-58 -74 -160 -74zM238 77q58 0 93.5 28t35.5 78v52h-62q-151 0 -151 -85q0 -73 84 -73zM288 756h134
l-104 -155h-89z" />
    <glyph glyph-name="acircumflex" unicode="&#xe2;" horiz-adv-x="559" 
d="M209 -10q-77 0 -126 38.5t-49 116.5q0 86 73.5 126t194.5 40h65v27q0 55 -21 80t-74 25q-89 0 -100 -82h-117q8 87 69 130t155 43q209 0 209 -191v-343h-119v64q-58 -74 -160 -74zM238 77q58 0 93.5 28t35.5 78v52h-62q-151 0 -151 -85q0 -73 84 -73zM223 753h96
l111 -151h-86l-75 68l-76 -68h-84z" />
    <glyph glyph-name="atilde" unicode="&#xe3;" horiz-adv-x="559" 
d="M209 -10q-77 0 -126 38.5t-49 116.5q0 86 73.5 126t194.5 40h65v27q0 55 -21 80t-74 25q-89 0 -100 -82h-117q8 87 69 130t155 43q209 0 209 -191v-343h-119v64q-58 -74 -160 -74zM238 77q58 0 93.5 28t35.5 78v52h-62q-151 0 -151 -85q0 -73 84 -73zM337 606
q-26 0 -62.5 20t-48.5 20q-14 0 -24 -11t-13 -29h-75q6 62 35 96.5t72 34.5q25 0 61.5 -19.5t50.5 -19.5q29 0 36 40h75q-6 -62 -35 -97t-72 -35z" />
    <glyph glyph-name="adieresis" unicode="&#xe4;" horiz-adv-x="559" 
d="M209 -10q-77 0 -126 38.5t-49 116.5q0 86 73.5 126t194.5 40h65v27q0 55 -21 80t-74 25q-89 0 -100 -82h-117q8 87 69 130t155 43q209 0 209 -191v-343h-119v64q-58 -74 -160 -74zM238 77q58 0 93.5 28t35.5 78v52h-62q-151 0 -151 -85q0 -73 84 -73zM180 613
q-27 0 -46.5 19t-19.5 46q0 26 19.5 45.5t46.5 19.5t46.5 -19.5t19.5 -45.5q0 -27 -19.5 -46t-46.5 -19zM378 613q-28 0 -47 19t-19 46q0 26 19 45.5t47 19.5q27 0 46.5 -19.5t19.5 -45.5q0 -27 -19.5 -46t-46.5 -19z" />
    <glyph glyph-name="aring" unicode="&#xe5;" horiz-adv-x="559" 
d="M209 -10q-77 0 -126 38.5t-49 116.5q0 86 73.5 126t194.5 40h65v27q0 55 -21 80t-74 25q-89 0 -100 -82h-117q8 87 69 130t155 43q209 0 209 -191v-343h-119v64q-58 -74 -160 -74zM238 77q58 0 93.5 28t35.5 78v52h-62q-151 0 -151 -85q0 -73 84 -73zM279 643q22 0 36 16
t14 39q0 24 -14 39.5t-36 15.5t-36 -15.5t-14 -39.5q0 -23 14 -39t36 -16zM279 590q-45 0 -78 32t-33 76t33 76t78 32t78 -32t33 -76t-33 -76t-78 -32z" />
    <glyph glyph-name="ae" unicode="&#xe6;" horiz-adv-x="895" 
d="M620 -10q-135 0 -199 100q-36 -52 -83.5 -76t-121.5 -24q-81 0 -131.5 38.5t-50.5 116.5q0 88 72.5 127.5t193.5 39.5h68v26q0 54 -22.5 79.5t-72.5 25.5q-92 0 -101 -82h-117q8 87 68.5 130t152.5 43q123 0 166 -76q65 76 173 76q104 0 172.5 -65.5t68.5 -200.5v-33
h-372q3 -74 37.5 -114.5t99.5 -40.5q102 0 116 80h116q-13 -82 -74 -126t-159 -44zM239 77q58 0 93.5 28t35.5 78v51h-65q-73 0 -111 -18.5t-38 -63.5q0 -75 85 -75zM736 312q-10 134 -121 134q-53 0 -87 -35t-42 -99h250z" />
    <glyph glyph-name="ccedilla" unicode="&#xe7;" horiz-adv-x="579" 
d="M283 -219q-48 0 -76.5 23t-33.5 65h66q6 -33 40 -33q17 0 27 9.5t10 24.5q0 14 -9.5 23t-25.5 9q-14 0 -30 -9l-34 32l40 68q-99 12 -159.5 81.5t-60.5 180.5v8q0 121 75.5 196t188.5 75q96 0 163 -47.5t76 -148.5h-117q-15 99 -120 99q-63 0 -102.5 -46t-39.5 -126v-8
q0 -85 38.5 -129.5t106.5 -44.5q50 0 85 29t41 83h111q-8 -89 -67 -144q-61 -57 -161 -61l-23 -40q42 4 71 -17t29 -66q0 -41 -30 -63.5t-79 -22.5z" />
    <glyph glyph-name="egrave" unicode="&#xe8;" horiz-adv-x="584" 
d="M302 -10q-118 0 -191.5 72t-73.5 194v8q0 120 73.5 195t186.5 75q106 0 176.5 -66t70.5 -198v-35h-383q3 -75 39.5 -115t104.5 -40q106 0 120 80h117q-13 -83 -75.5 -126.5t-164.5 -43.5zM424 316q-10 130 -127 130q-54 0 -89.5 -34.5t-44.5 -95.5h261zM152 756h134
l59 -155h-89z" />
    <glyph glyph-name="eacute" unicode="&#xe9;" horiz-adv-x="584" 
d="M302 -10q-118 0 -191.5 72t-73.5 194v8q0 120 73.5 195t186.5 75q106 0 176.5 -66t70.5 -198v-35h-383q3 -75 39.5 -115t104.5 -40q106 0 120 80h117q-13 -83 -75.5 -126.5t-164.5 -43.5zM424 316q-10 130 -127 130q-54 0 -89.5 -34.5t-44.5 -95.5h261zM304 756h134
l-104 -155h-89z" />
    <glyph glyph-name="ecircumflex" unicode="&#xea;" horiz-adv-x="584" 
d="M302 -10q-118 0 -191.5 72t-73.5 194v8q0 120 73.5 195t186.5 75q106 0 176.5 -66t70.5 -198v-35h-383q3 -75 39.5 -115t104.5 -40q106 0 120 80h117q-13 -83 -75.5 -126.5t-164.5 -43.5zM424 316q-10 130 -127 130q-54 0 -89.5 -34.5t-44.5 -95.5h261zM248 753h96
l111 -151h-86l-75 68l-76 -68h-84z" />
    <glyph glyph-name="edieresis" unicode="&#xeb;" horiz-adv-x="584" 
d="M302 -10q-118 0 -191.5 72t-73.5 194v8q0 120 73.5 195t186.5 75q106 0 176.5 -66t70.5 -198v-35h-383q3 -75 39.5 -115t104.5 -40q106 0 120 80h117q-13 -83 -75.5 -126.5t-164.5 -43.5zM424 316q-10 130 -127 130q-54 0 -89.5 -34.5t-44.5 -95.5h261zM196 613
q-27 0 -46.5 19t-19.5 46q0 26 19.5 45.5t46.5 19.5t46.5 -19.5t19.5 -45.5q0 -27 -19.5 -46t-46.5 -19zM394 613q-28 0 -47 19t-19 46q0 26 19 45.5t47 19.5q27 0 46.5 -19.5t19.5 -45.5q0 -27 -19.5 -46t-46.5 -19z" />
    <glyph glyph-name="igrave" unicode="&#xec;" horiz-adv-x="275" 
d="M75 523h121v-523h-121v523zM-7 756h134l59 -155h-89z" />
    <glyph glyph-name="iacute" unicode="&#xed;" horiz-adv-x="275" 
d="M75 523h121v-523h-121v523zM145 756h134l-104 -155h-89z" />
    <glyph glyph-name="icircumflex" unicode="&#xee;" horiz-adv-x="275" 
d="M75 523h121v-523h-121v523zM89 753h96l111 -151h-86l-75 68l-76 -68h-84z" />
    <glyph glyph-name="idieresis" unicode="&#xef;" horiz-adv-x="275" 
d="M39 613q-27 0 -46.5 19t-19.5 46q0 26 19.5 45.5t46.5 19.5t46.5 -19.5t19.5 -45.5q0 -27 -19.5 -46t-46.5 -19zM231 613q-27 0 -46.5 19t-19.5 46q0 26 19.5 45.5t46.5 19.5t46.5 -19.5t19.5 -45.5q0 -27 -19.5 -46t-46.5 -19zM75 523h121v-523h-121v523z" />
    <glyph glyph-name="eth" unicode="&#xf0;" horiz-adv-x="615" 
d="M141 620l103 49q-52 45 -124 96h143q39 -22 75 -50l93 45l27 -54l-69 -34q80 -73 132.5 -171t52.5 -209v-22q0 -125 -75.5 -202.5t-194.5 -77.5q-117 0 -192 74.5t-75 194.5v10q0 115 70.5 188.5t166.5 73.5q80 0 134 -61q-40 79 -117 155l-123 -59zM306 84
q68 0 106 46.5t38 126.5v8q0 81 -38 127.5t-105 46.5q-68 0 -107 -46t-39 -127v-8q0 -81 38 -127.5t107 -46.5z" />
    <glyph glyph-name="ntilde" unicode="&#xf1;" horiz-adv-x="612" 
d="M72 523h121v-83q20 41 63.5 67.5t105.5 26.5q83 0 131 -50.5t48 -154.5v-329h-121v318q0 60 -25 87.5t-79 27.5t-88.5 -32.5t-34.5 -92.5v-308h-121v523zM361 606q-26 0 -62.5 20t-48.5 20q-14 0 -24 -11t-13 -29h-75q6 62 35 96.5t72 34.5q25 0 61.5 -19.5t50.5 -19.5
q29 0 36 40h75q-6 -62 -35 -97t-72 -35z" />
    <glyph glyph-name="ograve" unicode="&#xf2;" horiz-adv-x="615" 
d="M306 84q68 0 106 46.5t38 127.5v7q0 81 -38 127.5t-106 46.5t-106.5 -46t-38.5 -127v-8q0 -81 38 -127.5t107 -46.5zM305 -10q-117 0 -192.5 73.5t-75.5 192.5v8q0 120 76 195t193 75q116 0 192 -74t76 -193v-8q0 -121 -76 -195t-193 -74zM162 756h134l59 -155h-89z" />
    <glyph glyph-name="oacute" unicode="&#xf3;" horiz-adv-x="615" 
d="M306 84q68 0 106 46.5t38 127.5v7q0 81 -38 127.5t-106 46.5t-106.5 -46t-38.5 -127v-8q0 -81 38 -127.5t107 -46.5zM305 -10q-117 0 -192.5 73.5t-75.5 192.5v8q0 120 76 195t193 75q116 0 192 -74t76 -193v-8q0 -121 -76 -195t-193 -74zM314 756h134l-104 -155h-89z
" />
    <glyph glyph-name="ocircumflex" unicode="&#xf4;" horiz-adv-x="615" 
d="M306 84q68 0 106 46.5t38 127.5v7q0 81 -38 127.5t-106 46.5t-106.5 -46t-38.5 -127v-8q0 -81 38 -127.5t107 -46.5zM305 -10q-117 0 -192.5 73.5t-75.5 192.5v8q0 120 76 195t193 75q116 0 192 -74t76 -193v-8q0 -121 -76 -195t-193 -74zM258 753h96l111 -151h-86
l-75 68l-76 -68h-84z" />
    <glyph glyph-name="otilde" unicode="&#xf5;" horiz-adv-x="615" 
d="M306 84q68 0 106 46.5t38 127.5v7q0 81 -38 127.5t-106 46.5t-106.5 -46t-38.5 -127v-8q0 -81 38 -127.5t107 -46.5zM305 -10q-117 0 -192.5 73.5t-75.5 192.5v8q0 120 76 195t193 75q116 0 192 -74t76 -193v-8q0 -121 -76 -195t-193 -74zM363 606q-26 0 -62.5 20
t-48.5 20q-14 0 -24 -11t-13 -29h-75q6 62 35 96.5t72 34.5q25 0 61.5 -19.5t50.5 -19.5q29 0 36 40h75q-6 -62 -35 -97t-72 -35z" />
    <glyph glyph-name="odieresis" unicode="&#xf6;" horiz-adv-x="615" 
d="M306 84q68 0 106 46.5t38 127.5v7q0 81 -38 127.5t-106 46.5t-106.5 -46t-38.5 -127v-8q0 -81 38 -127.5t107 -46.5zM305 -10q-117 0 -192.5 73.5t-75.5 192.5v8q0 120 76 195t193 75q116 0 192 -74t76 -193v-8q0 -121 -76 -195t-193 -74zM206 613q-27 0 -46.5 19
t-19.5 46q0 26 19.5 45.5t46.5 19.5t46.5 -19.5t19.5 -45.5q0 -27 -19.5 -46t-46.5 -19zM404 613q-28 0 -47 19t-19 46q0 26 19 45.5t47 19.5q27 0 46.5 -19.5t19.5 -45.5q0 -27 -19.5 -46t-46.5 -19z" />
    <glyph glyph-name="divide" unicode="&#xf7;" horiz-adv-x="544" 
d="M270 71q-32 0 -54 21.5t-22 53.5t22 53.5t54 21.5q31 0 53.5 -21.5t22.5 -53.5t-22.5 -53.5t-53.5 -21.5zM37 387h467v-91h-467v91zM270 461q-32 0 -54 21.5t-22 53.5t22 54t54 22q31 0 53.5 -22t22.5 -54t-22.5 -53.5t-53.5 -21.5z" />
    <glyph glyph-name="oslash" unicode="&#xf8;" horiz-adv-x="615" 
d="M22 4l73 79q-58 71 -58 173v8q0 120 76 195t193 75q92 0 159 -48l67 73l47 -42l-67 -73q62 -72 62 -177v-8q0 -121 -76 -195t-193 -74q-95 0 -164 50l-72 -78zM306 84q69 0 107 46t38 127v8q0 54 -18 93l-222 -241q36 -33 95 -33zM161 258q0 -47 14 -87l220 239
q-37 30 -89 30q-68 0 -106.5 -46.5t-38.5 -127.5v-8z" />
    <glyph glyph-name="ugrave" unicode="&#xf9;" horiz-adv-x="609" 
d="M247 -10q-82 0 -131 49t-49 149v335h121v-321q0 -60 25 -87.5t78 -27.5q52 0 87 33t35 92v311h121v-523h-121v82q-49 -92 -166 -92zM159 756h134l59 -155h-89z" />
    <glyph glyph-name="uacute" unicode="&#xfa;" horiz-adv-x="609" 
d="M247 -10q-82 0 -131 49t-49 149v335h121v-321q0 -60 25 -87.5t78 -27.5q52 0 87 33t35 92v311h121v-523h-121v82q-49 -92 -166 -92zM311 756h134l-104 -155h-89z" />
    <glyph glyph-name="ucircumflex" unicode="&#xfb;" horiz-adv-x="609" 
d="M247 -10q-82 0 -131 49t-49 149v335h121v-321q0 -60 25 -87.5t78 -27.5q52 0 87 33t35 92v311h121v-523h-121v82q-49 -92 -166 -92zM255 753h96l111 -151h-86l-75 68l-76 -68h-84z" />
    <glyph glyph-name="udieresis" unicode="&#xfc;" horiz-adv-x="609" 
d="M247 -10q-82 0 -131 49t-49 149v335h121v-321q0 -60 25 -87.5t78 -27.5q52 0 87 33t35 92v311h121v-523h-121v82q-49 -92 -166 -92zM203 613q-27 0 -46.5 19t-19.5 46q0 26 19.5 45.5t46.5 19.5t46.5 -19.5t19.5 -45.5q0 -27 -19.5 -46t-46.5 -19zM401 613q-28 0 -47 19
t-19 46q0 26 19.5 45.5t46.5 19.5t46.5 -19.5t19.5 -45.5q0 -27 -19.5 -46t-46.5 -19z" />
    <glyph glyph-name="yacute" unicode="&#xfd;" horiz-adv-x="557" 
d="M225 53l-207 470h131l139 -337l128 337h118l-285 -702h-119zM294 756h134l-104 -155h-89z" />
    <glyph glyph-name="thorn" unicode="&#xfe;" horiz-adv-x="637" 
d="M72 765h121v-326q23 40 69.5 67.5t101.5 27.5q101 0 166.5 -71.5t65.5 -194.5v-8q0 -124 -64.5 -197t-167.5 -73q-60 0 -104.5 25.5t-66.5 66.5v-261h-121v944zM334 86q67 0 102.5 44t35.5 128v8q0 84 -38.5 128.5t-100.5 44.5q-66 0 -105 -44t-39 -129v-8
q0 -85 38.5 -128.5t106.5 -43.5z" />
    <glyph glyph-name="ydieresis" unicode="&#xff;" horiz-adv-x="557" 
d="M225 53l-207 470h131l139 -337l128 337h118l-285 -702h-119zM186 613q-27 0 -46.5 19t-19.5 46q0 26 19.5 45.5t46.5 19.5t46.5 -19.5t19.5 -45.5q0 -27 -19.5 -46t-46.5 -19zM384 613q-28 0 -47 19t-19 46q0 26 19 45.5t47 19.5q27 0 46.5 -19.5t19.5 -45.5
q0 -27 -19.5 -46t-46.5 -19z" />
    <glyph glyph-name="Amacron" unicode="&#x100;" horiz-adv-x="707" 
d="M266 715h174l236 -715h-138l-57 177h-273l-56 -177h-125zM239 274h211l-105 332zM206 861h288v-81h-288v81z" />
    <glyph glyph-name="amacron" unicode="&#x101;" horiz-adv-x="559" 
d="M209 -10q-77 0 -126 38.5t-49 116.5q0 86 73.5 126t194.5 40h65v27q0 55 -21 80t-74 25q-89 0 -100 -82h-117q8 87 69 130t155 43q209 0 209 -191v-343h-119v64q-58 -74 -160 -74zM238 77q58 0 93.5 28t35.5 78v52h-62q-151 0 -151 -85q0 -73 84 -73zM139 712h280v-78
h-280v78z" />
    <glyph glyph-name="Abreve" unicode="&#x102;" horiz-adv-x="707" 
d="M266 715h174l236 -715h-138l-57 177h-273l-56 -177h-125zM239 274h211l-105 332zM349 761q-63 0 -102.5 38.5t-42.5 101.5h85q8 -56 60 -56t63 56h84q-4 -62 -45 -101t-102 -39z" />
    <glyph glyph-name="abreve" unicode="&#x103;" horiz-adv-x="559" 
d="M209 -10q-77 0 -126 38.5t-49 116.5q0 86 73.5 126t194.5 40h65v27q0 55 -21 80t-74 25q-89 0 -100 -82h-117q8 87 69 130t155 43q209 0 209 -191v-343h-119v64q-58 -74 -160 -74zM238 77q58 0 93.5 28t35.5 78v52h-62q-151 0 -151 -85q0 -73 84 -73zM278 606
q-62 0 -101.5 39t-43.5 104h84q8 -58 61 -58q54 0 65 58h82q-4 -64 -45 -103.5t-102 -39.5z" />
    <glyph glyph-name="Aogonek" unicode="&#x104;" horiz-adv-x="707" 
d="M605 -182q-51 0 -81.5 21.5t-30.5 59.5q0 61 81 101h-36l-57 177h-273l-56 -177h-125l239 715h174l233 -708q-71 -41 -71 -83q0 -32 35 -32q25 0 43 9v-69q-30 -14 -75 -14zM239 274h211l-105 332z" />
    <glyph glyph-name="aogonek" unicode="&#x105;" horiz-adv-x="559" 
d="M421 -182q-50 0 -79.5 21t-29.5 59q0 62 82 102h-25v64q-58 -74 -160 -74q-77 0 -126 38.5t-49 116.5q0 86 73.5 126t194.5 40h65v27q0 55 -21 80t-74 25q-89 0 -100 -82h-117q8 87 69 130t155 43q209 0 209 -191v-336q-70 -44 -70 -84q0 -33 35 -33q23 0 43 9v-67
q-30 -14 -75 -14zM238 77q58 0 93.5 28t35.5 78v52h-62q-151 0 -151 -85q0 -73 84 -73z" />
    <glyph glyph-name="Cacute" unicode="&#x106;" horiz-adv-x="745" 
d="M395 -10q-166 0 -257.5 98t-91.5 265v8q0 160 98 262.5t249 102.5q128 0 211.5 -64t95.5 -186h-135q-11 73 -52.5 108.5t-118.5 35.5q-94 0 -151 -69.5t-57 -188.5v-8q0 -121 55 -188.5t154 -67.5q76 0 124 38.5t59 112.5h130q-15 -127 -98.5 -193t-214.5 -66zM396 901
h136l-99 -135h-91z" />
    <glyph glyph-name="cacute" unicode="&#x107;" horiz-adv-x="579" 
d="M301 -10q-115 0 -189.5 71.5t-74.5 193.5v8q0 121 75.5 196t188.5 75q96 0 163 -47.5t76 -148.5h-117q-15 99 -120 99q-63 0 -102.5 -46t-39.5 -126v-8q0 -85 38.5 -129.5t106.5 -44.5q50 0 85 29t41 83h111q-6 -91 -72 -148t-170 -57zM307 756h134l-104 -155h-89z" />
    <glyph glyph-name="Ccircumflex" unicode="&#x108;" horiz-adv-x="745" 
d="M395 -10q-166 0 -257.5 98t-91.5 265v8q0 160 98 262.5t249 102.5q128 0 211.5 -64t95.5 -186h-135q-11 73 -52.5 108.5t-118.5 35.5q-94 0 -151 -69.5t-57 -188.5v-8q0 -121 55 -188.5t154 -67.5q76 0 124 38.5t59 112.5h130q-15 -127 -98.5 -193t-214.5 -66zM343 901
h104l108 -135h-88l-74 55l-75 -55h-86z" />
    <glyph glyph-name="ccircumflex" unicode="&#x109;" horiz-adv-x="579" 
d="M301 -10q-115 0 -189.5 71.5t-74.5 193.5v8q0 121 75.5 196t188.5 75q96 0 163 -47.5t76 -148.5h-117q-15 99 -120 99q-63 0 -102.5 -46t-39.5 -126v-8q0 -85 38.5 -129.5t106.5 -44.5q50 0 85 29t41 83h111q-6 -91 -72 -148t-170 -57zM251 753h96l111 -151h-86l-75 68
l-76 -68h-84z" />
    <glyph glyph-name="Cdotaccent" unicode="&#x10a;" horiz-adv-x="745" 
d="M395 -10q-166 0 -257.5 98t-91.5 265v8q0 160 98 262.5t249 102.5q128 0 211.5 -64t95.5 -186h-135q-11 73 -52.5 108.5t-118.5 35.5q-94 0 -151 -69.5t-57 -188.5v-8q0 -121 55 -188.5t154 -67.5q76 0 124 38.5t59 112.5h130q-15 -127 -98.5 -193t-214.5 -66zM391 775
q-30 0 -50.5 20t-20.5 49t20.5 48.5t50.5 19.5t50.5 -19.5t20.5 -48.5t-21 -49t-50 -20z" />
    <glyph glyph-name="cdotaccent" unicode="&#x10b;" horiz-adv-x="579" 
d="M301 -10q-115 0 -189.5 71.5t-74.5 193.5v8q0 121 75.5 196t188.5 75q96 0 163 -47.5t76 -148.5h-117q-15 99 -120 99q-63 0 -102.5 -46t-39.5 -126v-8q0 -85 38.5 -129.5t106.5 -44.5q50 0 85 29t41 83h111q-6 -91 -72 -148t-170 -57zM299 611q-30 0 -50.5 20t-20.5 49
t20.5 48.5t50.5 19.5t50.5 -19.5t20.5 -48.5t-21 -49t-50 -20z" />
    <glyph glyph-name="Ccaron" unicode="&#x10c;" horiz-adv-x="745" 
d="M395 -10q-166 0 -257.5 98t-91.5 265v8q0 160 98 262.5t249 102.5q128 0 211.5 -64t95.5 -186h-135q-11 73 -52.5 108.5t-118.5 35.5q-94 0 -151 -69.5t-57 -188.5v-8q0 -121 55 -188.5t154 -67.5q76 0 124 38.5t59 112.5h130q-15 -127 -98.5 -193t-214.5 -66zM232 901
h88l75 -55l74 55h86l-110 -135h-105z" />
    <glyph glyph-name="ccaron" unicode="&#x10d;" horiz-adv-x="579" 
d="M301 -10q-115 0 -189.5 71.5t-74.5 193.5v8q0 121 75.5 196t188.5 75q96 0 163 -47.5t76 -148.5h-117q-15 99 -120 99q-63 0 -102.5 -46t-39.5 -126v-8q0 -85 38.5 -129.5t106.5 -44.5q50 0 85 29t41 83h111q-6 -91 -72 -148t-170 -57zM137 753h87l75 -67l75 67h84
l-113 -151h-96z" />
    <glyph glyph-name="Dcaron" unicode="&#x10e;" horiz-adv-x="718" 
d="M293 105q119 0 178 64.5t59 185.5v8q0 247 -238 247h-77v-505h78zM82 715h217q181 0 275.5 -94.5t94.5 -255.5v-9q0 -162 -95 -259t-277 -97h-215v715zM162 901h88l75 -55l74 55h86l-110 -135h-105z" />
    <glyph glyph-name="dcaron" unicode="&#x10f;" horiz-adv-x="637" 
d="M268 -10q-102 0 -166 69t-64 194v8q0 124 65.5 198.5t169.5 74.5q116 0 167 -91v322h121v-765h-121v88q-23 -41 -69.5 -69.5t-102.5 -28.5zM298 86q66 0 106 44t40 129v8q0 85 -37 128.5t-104 43.5t-104 -45.5t-37 -129.5v-8q0 -83 37 -126.5t99 -43.5zM615 765h110
l-49 -175h-71z" />
    <glyph glyph-name="Dcroat" unicode="&#x110;" horiz-adv-x="743" 
d="M32 406h69v309h217q181 0 275.5 -94.5t94.5 -255.5v-9q0 -162 -94 -259t-277 -97h-216v311h-69v95zM313 105q119 0 177.5 64.5t58.5 185.5v8q0 247 -237 247h-79v-204h173v-95h-173v-206h80z" />
    <glyph glyph-name="dcroat" unicode="&#x111;" horiz-adv-x="637" 
d="M271 679h169v86h121v-86h68v-75h-68v-604h-121v88q-23 -41 -69.5 -69.5t-102.5 -28.5q-102 0 -166 69t-64 194v8q0 124 65.5 198.5t169.5 74.5q116 0 167 -91v161h-169v75zM298 86q66 0 106 44t40 129v8q0 85 -37 128.5t-104 43.5t-104 -45.5t-37 -129.5v-8
q0 -83 37 -126.5t99 -43.5z" />
    <glyph glyph-name="Emacron" unicode="&#x112;" horiz-adv-x="588" 
d="M82 715h447v-105h-314v-196h252v-100h-252v-209h331v-105h-464v715zM169 861h288v-81h-288v81z" />
    <glyph glyph-name="emacron" unicode="&#x113;" horiz-adv-x="584" 
d="M302 -10q-118 0 -191.5 72t-73.5 194v8q0 120 73.5 195t186.5 75q106 0 176.5 -66t70.5 -198v-35h-383q3 -75 39.5 -115t104.5 -40q106 0 120 80h117q-13 -83 -75.5 -126.5t-164.5 -43.5zM424 316q-10 130 -127 130q-54 0 -89.5 -34.5t-44.5 -95.5h261zM155 712h280v-78
h-280v78z" />
    <glyph glyph-name="Ebreve" unicode="&#x114;" horiz-adv-x="588" 
d="M82 715h447v-105h-314v-196h252v-100h-252v-209h331v-105h-464v715zM316 761q-63 0 -102.5 38.5t-42.5 101.5h85q8 -56 60 -56t63 56h84q-4 -62 -45 -101t-102 -39z" />
    <glyph glyph-name="ebreve" unicode="&#x115;" horiz-adv-x="584" 
d="M302 -10q-118 0 -191.5 72t-73.5 194v8q0 120 73.5 195t186.5 75q106 0 176.5 -66t70.5 -198v-35h-383q3 -75 39.5 -115t104.5 -40q106 0 120 80h117q-13 -83 -75.5 -126.5t-164.5 -43.5zM424 316q-10 130 -127 130q-54 0 -89.5 -34.5t-44.5 -95.5h261zM287 606
q-62 0 -101.5 39t-43.5 104h84q8 -58 61 -58q54 0 65 58h82q-4 -64 -45 -103.5t-102 -39.5z" />
    <glyph glyph-name="Edotaccent" unicode="&#x116;" horiz-adv-x="588" 
d="M82 715h447v-105h-314v-196h252v-100h-252v-209h331v-105h-464v715zM313 775q-30 0 -50.5 20t-20.5 49t20.5 48.5t50.5 19.5t50.5 -19.5t20.5 -48.5t-21 -49t-50 -20z" />
    <glyph glyph-name="edotaccent" unicode="&#x117;" horiz-adv-x="584" 
d="M302 -10q-118 0 -191.5 72t-73.5 194v8q0 120 73.5 195t186.5 75q106 0 176.5 -66t70.5 -198v-35h-383q3 -75 39.5 -115t104.5 -40q106 0 120 80h117q-13 -83 -75.5 -126.5t-164.5 -43.5zM424 316q-10 130 -127 130q-54 0 -89.5 -34.5t-44.5 -95.5h261zM295 611
q-30 0 -50.5 20t-20.5 49t20.5 48.5t50.5 19.5t50.5 -19.5t20.5 -48.5t-21 -49t-50 -20z" />
    <glyph glyph-name="Eogonek" unicode="&#x118;" horiz-adv-x="588" 
d="M459 -182q-51 0 -81 21.5t-30 59.5q0 61 81 101h-347v715h447v-105h-314v-196h252v-100h-252v-209h331v-105h-32q-57 -39 -57 -76q0 -32 35 -32q24 0 43 9v-69q-30 -14 -76 -14z" />
    <glyph glyph-name="eogonek" unicode="&#x119;" horiz-adv-x="584" 
d="M395 -182q-51 0 -80.5 21t-29.5 59q0 52 74 96q-23 -4 -57 -4q-118 0 -191.5 72t-73.5 194v8q0 120 73.5 195t186.5 75q106 0 176.5 -66t70.5 -198v-35h-383q3 -75 39.5 -115t104.5 -40q106 0 120 80h117q-6 -35 -23 -65.5t-27.5 -41t-32.5 -31.5q-69 -62 -69 -99
q0 -33 35 -33q25 0 44 9v-67q-33 -14 -74 -14zM424 316q-10 130 -127 130q-54 0 -89.5 -34.5t-44.5 -95.5h261z" />
    <glyph glyph-name="Ecaron" unicode="&#x11a;" horiz-adv-x="588" 
d="M82 715h447v-105h-314v-196h252v-100h-252v-209h331v-105h-464v715zM153 901h88l75 -55l74 55h86l-110 -135h-105z" />
    <glyph glyph-name="ecaron" unicode="&#x11b;" horiz-adv-x="584" 
d="M302 -10q-118 0 -191.5 72t-73.5 194v8q0 120 73.5 195t186.5 75q106 0 176.5 -66t70.5 -198v-35h-383q3 -75 39.5 -115t104.5 -40q106 0 120 80h117q-13 -83 -75.5 -126.5t-164.5 -43.5zM424 316q-10 130 -127 130q-54 0 -89.5 -34.5t-44.5 -95.5h261zM134 753h87
l75 -67l75 67h84l-113 -151h-96z" />
    <glyph glyph-name="Gcircumflex" unicode="&#x11c;" horiz-adv-x="779" 
d="M403 -10q-168 0 -262.5 100.5t-94.5 262.5v8q0 160 100 262.5t257 102.5q124 0 209.5 -60t98.5 -181h-133q-23 136 -173 136q-104 0 -162.5 -71t-58.5 -190v-8q0 -118 56.5 -188t164.5 -70q95 0 142 49.5t51 130.5h-180v100h311v-66q0 -148 -87 -233t-239 -85zM347 901
h104l108 -135h-88l-74 55l-75 -55h-86z" />
    <glyph glyph-name="gcircumflex" unicode="&#x11d;" horiz-adv-x="637" 
d="M295 -192q-117 0 -179.5 47t-72.5 127h122q17 -82 129 -82q146 0 146 141v77q-23 -40 -69.5 -68.5t-101.5 -28.5q-100 0 -166 68.5t-66 180.5v7q0 111 66.5 184t168.5 73q114 0 168 -91v80h121v-484q-1 -114 -71 -172.5t-195 -58.5zM299 114q64 0 104.5 43t40.5 117v7
q0 75 -37.5 116.5t-103.5 41.5q-67 0 -104.5 -43.5t-37.5 -116.5v-8q0 -71 39 -114t99 -43zM251 753h96l111 -151h-86l-75 68l-76 -68h-84z" />
    <glyph glyph-name="Gbreve" unicode="&#x11e;" horiz-adv-x="779" 
d="M403 -10q-168 0 -262.5 100.5t-94.5 262.5v8q0 160 100 262.5t257 102.5q124 0 209.5 -60t98.5 -181h-133q-23 136 -173 136q-104 0 -162.5 -71t-58.5 -190v-8q0 -118 56.5 -188t164.5 -70q95 0 142 49.5t51 130.5h-180v100h311v-66q0 -148 -87 -233t-239 -85zM397 761
q-63 0 -102.5 38.5t-42.5 101.5h85q8 -56 60 -56t63 56h84q-4 -62 -45 -101t-102 -39z" />
    <glyph glyph-name="gbreve" unicode="&#x11f;" horiz-adv-x="637" 
d="M295 -192q-117 0 -179.5 47t-72.5 127h122q17 -82 129 -82q146 0 146 141v77q-23 -40 -69.5 -68.5t-101.5 -28.5q-100 0 -166 68.5t-66 180.5v7q0 111 66.5 184t168.5 73q114 0 168 -91v80h121v-484q-1 -114 -71 -172.5t-195 -58.5zM299 114q64 0 104.5 43t40.5 117v7
q0 75 -37.5 116.5t-103.5 41.5q-67 0 -104.5 -43.5t-37.5 -116.5v-8q0 -71 39 -114t99 -43zM297 606q-62 0 -101.5 39t-43.5 104h84q8 -58 61 -58q54 0 65 58h82q-4 -64 -45 -103.5t-102 -39.5z" />
    <glyph glyph-name="Gdotaccent" unicode="&#x120;" horiz-adv-x="779" 
d="M403 -10q-168 0 -262.5 100.5t-94.5 262.5v8q0 160 100 262.5t257 102.5q124 0 209.5 -60t98.5 -181h-133q-23 136 -173 136q-104 0 -162.5 -71t-58.5 -190v-8q0 -118 56.5 -188t164.5 -70q95 0 142 49.5t51 130.5h-180v100h311v-66q0 -148 -87 -233t-239 -85zM398 775
q-30 0 -50.5 20t-20.5 49t20.5 48.5t50.5 19.5t50.5 -19.5t20.5 -48.5t-21 -49t-50 -20z" />
    <glyph glyph-name="gdotaccent" unicode="&#x121;" horiz-adv-x="637" 
d="M295 -192q-117 0 -179.5 47t-72.5 127h122q17 -82 129 -82q146 0 146 141v77q-23 -40 -69.5 -68.5t-101.5 -28.5q-100 0 -166 68.5t-66 180.5v7q0 111 66.5 184t168.5 73q114 0 168 -91v80h121v-484q-1 -114 -71 -172.5t-195 -58.5zM299 114q64 0 104.5 43t40.5 117v7
q0 75 -37.5 116.5t-103.5 41.5q-67 0 -104.5 -43.5t-37.5 -116.5v-8q0 -71 39 -114t99 -43zM298 611q-30 0 -50.5 20t-20.5 49t20.5 48.5t50.5 19.5t50.5 -19.5t20.5 -48.5t-21 -49t-50 -20z" />
    <glyph glyph-name="uni0122" unicode="&#x122;" horiz-adv-x="775" 
d="M403 -10q-168 0 -262.5 100.5t-94.5 262.5v8q0 160 100 262.5t257 102.5q124 0 209.5 -60t98.5 -181h-133q-23 136 -173 136q-104 0 -162.5 -71t-58.5 -190v-8q0 -118 56.5 -188t164.5 -70q95 0 142 49.5t51 130.5h-180v100h311v-66q0 -148 -87 -233t-239 -85zM301 -198
l52 165l111 -22l-92 -170z" />
    <glyph glyph-name="uni0123" unicode="&#x123;" horiz-adv-x="633" 
d="M295 -192q-117 0 -179.5 47t-72.5 127h122q17 -82 129 -82q146 0 146 141v77q-23 -40 -69.5 -68.5t-101.5 -28.5q-100 0 -166 68.5t-66 180.5v7q0 111 66.5 184t168.5 73q114 0 168 -91v80h121v-484q-1 -114 -71 -172.5t-195 -58.5zM299 114q64 0 104.5 43t40.5 117v7
q0 75 -37.5 116.5t-103.5 41.5q-67 0 -104.5 -43.5t-37.5 -116.5v-8q0 -71 39 -114t99 -43zM244 610l92 169l70 -26l-51 -165z" />
    <glyph glyph-name="Hcircumflex" unicode="&#x124;" horiz-adv-x="755" 
d="M82 715h133v-304h321v304h134v-715h-134v304h-321v-304h-133v715zM324 901h104l108 -135h-88l-74 55l-75 -55h-86z" />
    <glyph glyph-name="hcircumflex" unicode="&#x125;" horiz-adv-x="612" 
d="M72 765h121v-325q20 41 63.5 67.5t105.5 26.5q83 0 131 -50.5t48 -154.5v-329h-121v318q0 60 -25 87.5t-79 27.5t-88.5 -32.5t-34.5 -92.5v-308h-121v765zM263 941h104l108 -135h-88l-74 55l-75 -55h-86z" />
    <glyph glyph-name="Hbar" unicode="&#x126;" horiz-adv-x="755" 
d="M16 582h66v133h133v-133h321v133h134v-133h66v-78h-66v-504h-134v304h-321v-304h-133v504h-66v78zM536 411v93h-321v-93h321z" />
    <glyph glyph-name="hbar" unicode="&#x127;" horiz-adv-x="612" 
d="M4 679h68v86h121v-86h169v-75h-169v-164q20 41 63.5 67.5t105.5 26.5q83 0 131 -50.5t48 -154.5v-329h-121v318q0 60 -25 87.5t-79 27.5t-88.5 -32.5t-34.5 -92.5v-308h-121v604h-68v75z" />
    <glyph glyph-name="Itilde" unicode="&#x128;" horiz-adv-x="311" 
d="M86 715h134v-715h-134v715zM213 768q-26 0 -63 19.5t-49 19.5q-14 0 -24 -11t-13 -29h-76q5 61 35.5 96t73.5 35q25 0 62 -20t51 -20q29 0 36 40h77q-6 -61 -36.5 -95.5t-73.5 -34.5z" />
    <glyph glyph-name="itilde" unicode="&#x129;" horiz-adv-x="275" 
d="M75 523h121v-523h-121v523zM194 606q-26 0 -62.5 20t-48.5 20q-14 0 -24 -11t-13 -29h-75q6 62 35 96.5t72 34.5q25 0 61.5 -19.5t50.5 -19.5q29 0 36 40h75q-6 -62 -35 -97t-72 -35z" />
    <glyph glyph-name="Imacron" unicode="&#x12a;" horiz-adv-x="311" 
d="M86 715h134v-715h-134v715zM9 861h288v-81h-288v81z" />
    <glyph glyph-name="imacron" unicode="&#x12b;" horiz-adv-x="275" 
d="M28 712h214v-78h-214v78zM75 523h121v-523h-121v523z" />
    <glyph glyph-name="Ibreve" unicode="&#x12c;" horiz-adv-x="311" 
d="M86 715h134v-715h-134v715zM154 761q-63 0 -102.5 38.5t-42.5 101.5h85q8 -56 60 -56t63 56h84q-4 -62 -45 -101t-102 -39z" />
    <glyph glyph-name="ibreve" unicode="&#x12d;" horiz-adv-x="275" 
d="M75 523h121v-523h-121v523zM135 606q-62 0 -101.5 39t-43.5 104h84q8 -58 61 -58q54 0 65 58h82q-4 -64 -45 -103.5t-102 -39.5z" />
    <glyph glyph-name="Iogonek" unicode="&#x12e;" horiz-adv-x="311" 
d="M155 -182q-51 0 -81.5 21.5t-30.5 59.5q0 61 81 101h-38v715h134v-708q-68 -41 -68 -83q0 -32 35 -32q25 0 43 9v-69q-30 -14 -75 -14z" />
    <glyph glyph-name="iogonek" unicode="&#x12f;" horiz-adv-x="275" 
d="M134 -182q-51 0 -80 21.5t-29 59.5q0 61 81 101h-31v523h121v-518q-66 -44 -66 -82q0 -33 35 -33q25 0 43 9v-67q-30 -14 -74 -14zM134 609q-30 0 -51 20t-21 49q0 30 21 50t51 20t51 -20t21 -50q0 -29 -21 -49t-51 -20z" />
    <glyph glyph-name="Idotaccent" unicode="&#x130;" horiz-adv-x="311" 
d="M86 715h134v-715h-134v715zM154 775q-30 0 -50.5 20t-20.5 49t20.5 48.5t50.5 19.5t50.5 -19.5t20.5 -48.5t-21 -49t-50 -20z" />
    <glyph glyph-name="dotlessi" unicode="&#x131;" horiz-adv-x="275" 
d="M75 523h121v-523h-121v523z" />
    <glyph glyph-name="IJ" unicode="&#x132;" horiz-adv-x="719" 
d="M86 715h134v-715h-134v715zM419 -9q-72 0 -112 21v104q41 -18 92 -18q107 0 107 122v495h134v-498q0 -113 -59 -169.5t-162 -56.5z" />
    <glyph glyph-name="ij" unicode="&#x133;" horiz-adv-x="275" 
d="M75 523h121v-523h-121v523zM134 609q-30 0 -51 20t-21 49q0 30 21 50t51 20t51 -20t21 -50q0 -29 -21 -49t-51 -20zM274 -95q72 5 72 74v544h121v-541q0 -84 -44.5 -126t-148.5 -44v93zM405 609q-30 0 -51 20t-21 49q0 30 21 50t51 20t51 -20t21 -50q0 -29 -21 -49
t-51 -20z" />
    <glyph glyph-name="Jcircumflex" unicode="&#x134;" horiz-adv-x="447" 
d="M148 -9q-72 0 -112 21v104q41 -18 92 -18q107 0 107 122v495h134v-498q0 -113 -59 -169.5t-162 -56.5zM248 901h104l108 -135h-88l-74 55l-75 -55h-86z" />
    <glyph glyph-name="jcircumflex" unicode="&#x135;" horiz-adv-x="275" 
d="M3 -95q72 5 72 74v544h121v-541q0 -84 -44.5 -126t-148.5 -44v93zM88 753h96l111 -151h-86l-75 68l-76 -68h-84z" />
    <glyph glyph-name="uni0136" unicode="&#x136;" horiz-adv-x="659" 
d="M82 715h133v-324l274 325h143l-296 -342l311 -374h-157l-275 334v-334h-133v715zM245 -198l52 165l111 -22l-92 -170z" />
    <glyph glyph-name="uni0137" unicode="&#x137;" horiz-adv-x="540" 
d="M72 765h121v-472l187 230h132l-203 -240l220 -283h-140l-196 257v-257h-121v765zM185 -198l52 165l111 -22l-92 -170z" />
    <glyph glyph-name="Lacute" unicode="&#x139;" horiz-adv-x="555" 
d="M82 715h133v-609h305v-106h-438v715zM153 901h136l-99 -135h-91z" />
    <glyph glyph-name="lacute" unicode="&#x13a;" horiz-adv-x="275" 
d="M75 765h121v-765h-121v765zM140 941h136l-99 -135h-91z" />
    <glyph glyph-name="uni013B" unicode="&#x13b;" horiz-adv-x="551" 
d="M82 715h133v-609h305v-106h-438v715zM203 -198l52 165l111 -22l-92 -170z" />
    <glyph glyph-name="uni013C" unicode="&#x13c;" horiz-adv-x="271" 
d="M75 765h121v-765h-121v765zM39 -198l52 165l111 -22l-92 -170z" />
    <glyph glyph-name="Lcaron" unicode="&#x13d;" horiz-adv-x="555" 
d="M333 715h115l-59 -165h-76zM82 715h133v-609h305v-106h-438v715z" />
    <glyph glyph-name="lcaron" unicode="&#x13e;" horiz-adv-x="275" 
d="M75 765h121v-765h-121v765zM250 765h110l-49 -175h-71z" />
    <glyph glyph-name="Ldot" unicode="&#x13f;" horiz-adv-x="565" 
d="M82 715h133v-609h305v-106h-438v715zM429 312q-33 0 -56 23t-23 56t23 55.5t56 22.5q34 0 57 -22.5t23 -55.5t-23 -56t-57 -23z" />
    <glyph glyph-name="ldot" unicode="&#x140;" horiz-adv-x="382" 
d="M75 765h121v-765h-121v765zM322 285q-33 0 -56 23t-23 56t23 55.5t56 22.5q34 0 57 -22.5t23 -55.5t-23 -56t-57 -23z" />
    <glyph glyph-name="Lslash" unicode="&#x141;" horiz-adv-x="574" 
d="M35 326l66 23v366h134v-318l191 69v-84l-191 -69v-207h305v-106h-439v265l-66 -23v84z" />
    <glyph glyph-name="lslash" unicode="&#x142;" horiz-adv-x="303" 
d="M19 379l70 37v349h121v-285l74 40v-88l-74 -40v-392h-121v328l-70 -37v88z" />
    <glyph glyph-name="Nacute" unicode="&#x143;" horiz-adv-x="749" 
d="M82 715h159l301 -517v517h121v-715h-138l-322 548v-548h-121v715zM387 901h136l-99 -135h-91z" />
    <glyph glyph-name="nacute" unicode="&#x144;" horiz-adv-x="612" 
d="M72 523h121v-83q20 41 63.5 67.5t105.5 26.5q83 0 131 -50.5t48 -154.5v-329h-121v318q0 60 -25 87.5t-79 27.5t-88.5 -32.5t-34.5 -92.5v-308h-121v523zM312 756h134l-104 -155h-89z" />
    <glyph glyph-name="uni0145" unicode="&#x145;" horiz-adv-x="745" 
d="M82 715h159l301 -517v517h121v-715h-138l-322 548v-548h-121v715zM266 -198l52 165l111 -22l-92 -170z" />
    <glyph glyph-name="uni0146" unicode="&#x146;" horiz-adv-x="608" 
d="M72 523h121v-83q20 41 63.5 67.5t105.5 26.5q83 0 131 -50.5t48 -154.5v-329h-121v318q0 60 -25 87.5t-79 27.5t-88.5 -32.5t-34.5 -92.5v-308h-121v523zM206 -198l52 165l111 -22l-92 -170z" />
    <glyph glyph-name="Ncaron" unicode="&#x147;" horiz-adv-x="749" 
d="M82 715h159l301 -517v517h121v-715h-138l-322 548v-548h-121v715zM223 901h88l75 -55l74 55h86l-110 -135h-105z" />
    <glyph glyph-name="ncaron" unicode="&#x148;" horiz-adv-x="612" 
d="M72 523h121v-83q20 41 63.5 67.5t105.5 26.5q83 0 131 -50.5t48 -154.5v-329h-121v318q0 60 -25 87.5t-79 27.5t-88.5 -32.5t-34.5 -92.5v-308h-121v523zM142 753h87l75 -67l75 67h84l-113 -151h-96z" />
    <glyph glyph-name="napostrophe" unicode="&#x149;" horiz-adv-x="659" 
d="M118 523h121v-83q20 41 63.5 67.5t105.5 26.5q83 0 131 -50.5t48 -154.5v-329h-121v318q0 60 -25 87.5t-79 27.5t-88.5 -32.5t-34.5 -92.5v-308h-121v523zM-39 496l86 231l109 -43l-124 -220z" />
    <glyph glyph-name="Eng" unicode="&#x14a;" horiz-adv-x="749" 
d="M448 -193q-65 0 -109 21v101q41 -18 88 -18q98 0 104 95l-326 549v-555h-123v715h161l297 -507v507h123v-700q0 -102 -57.5 -155t-157.5 -53z" />
    <glyph glyph-name="eng" unicode="&#x14b;" horiz-adv-x="612" 
d="M349 -95q71 5 71 74v339q0 60 -25 87.5t-79 27.5t-88.5 -32.5t-34.5 -92.5v-308h-121v523h121v-83q20 41 63.5 67.5t105.5 26.5q83 0 131 -50.5t48 -154.5v-347q0 -83 -44 -125.5t-148 -44.5v93z" />
    <glyph glyph-name="Omacron" unicode="&#x14c;" horiz-adv-x="818" 
d="M410 97q101 0 160.5 70.5t59.5 187.5v8q0 113 -59.5 184.5t-162.5 71.5q-104 0 -163.5 -70t-59.5 -187v-8q0 -116 63 -186.5t162 -70.5zM408 -10q-162 0 -262 103t-100 260v8q0 158 101.5 261t260.5 103t259.5 -101.5t100.5 -259.5v-8q0 -158 -99.5 -262t-260.5 -104z
M262 861h288v-81h-288v81z" />
    <glyph glyph-name="omacron" unicode="&#x14d;" horiz-adv-x="615" 
d="M306 84q68 0 106 46.5t38 127.5v7q0 81 -38 127.5t-106 46.5t-106.5 -46t-38.5 -127v-8q0 -81 38 -127.5t107 -46.5zM305 -10q-117 0 -192.5 73.5t-75.5 192.5v8q0 120 76 195t193 75q116 0 192 -74t76 -193v-8q0 -121 -76 -195t-193 -74zM165 712h280v-78h-280v78z" />
    <glyph glyph-name="Obreve" unicode="&#x14e;" horiz-adv-x="818" 
d="M410 97q101 0 160.5 70.5t59.5 187.5v8q0 113 -59.5 184.5t-162.5 71.5q-104 0 -163.5 -70t-59.5 -187v-8q0 -116 63 -186.5t162 -70.5zM408 -10q-162 0 -262 103t-100 260v8q0 158 101.5 261t260.5 103t259.5 -101.5t100.5 -259.5v-8q0 -158 -99.5 -262t-260.5 -104z
M405 761q-63 0 -102.5 38.5t-42.5 101.5h85q8 -56 60 -56t63 56h84q-4 -62 -45 -101t-102 -39z" />
    <glyph glyph-name="obreve" unicode="&#x14f;" horiz-adv-x="615" 
d="M306 84q68 0 106 46.5t38 127.5v7q0 81 -38 127.5t-106 46.5t-106.5 -46t-38.5 -127v-8q0 -81 38 -127.5t107 -46.5zM305 -10q-117 0 -192.5 73.5t-75.5 192.5v8q0 120 76 195t193 75q116 0 192 -74t76 -193v-8q0 -121 -76 -195t-193 -74zM304 606q-62 0 -101.5 39
t-43.5 104h84q8 -58 61 -58q54 0 65 58h82q-4 -64 -45 -103.5t-102 -39.5z" />
    <glyph glyph-name="Ohungarumlaut" unicode="&#x150;" horiz-adv-x="818" 
d="M410 97q101 0 160.5 70.5t59.5 187.5v8q0 113 -59.5 184.5t-162.5 71.5q-104 0 -163.5 -70t-59.5 -187v-8q0 -116 63 -186.5t162 -70.5zM408 -10q-162 0 -262 103t-100 260v8q0 158 101.5 261t260.5 103t259.5 -101.5t100.5 -259.5v-8q0 -158 -99.5 -262t-260.5 -104z
M310 901h118l-73 -135h-83zM480 901h118l-73 -135h-83z" />
    <glyph glyph-name="ohungarumlaut" unicode="&#x151;" horiz-adv-x="615" 
d="M306 84q68 0 106 46.5t38 127.5v7q0 81 -38 127.5t-106 46.5t-106.5 -46t-38.5 -127v-8q0 -81 38 -127.5t107 -46.5zM305 -10q-117 0 -192.5 73.5t-75.5 192.5v8q0 120 76 195t193 75q116 0 192 -74t76 -193v-8q0 -121 -76 -195t-193 -74zM218 756h113l-76 -155h-78z
M381 756h113l-76 -155h-78z" />
    <glyph glyph-name="OE" unicode="&#x152;" horiz-adv-x="968" 
d="M46 359q0 162 94.5 259t276.5 97h493v-105h-299v-196h236v-100h-236v-209h316v-105h-512q-181 0 -275 94.5t-94 255.5v9zM420 610q-118 0 -176.5 -64.5t-58.5 -185.5v-8q0 -247 237 -247h56v505h-58z" />
    <glyph glyph-name="oe" unicode="&#x153;" horiz-adv-x="995" 
d="M305 -10q-117 0 -192.5 73.5t-75.5 192.5v8q0 120 76 195t193 75q136 0 204 -103q68 103 198 103q106 0 177 -66t71 -198v-35h-384q3 -76 39.5 -115.5t105.5 -39.5q103 0 120 80h116q-13 -82 -75.5 -126t-163.5 -44q-140 0 -205 102q-67 -102 -204 -102zM306 84
q68 0 106 46.5t38 126.5v8q0 81 -38 127.5t-106 46.5t-106.5 -46t-38.5 -127v-8q0 -81 38 -127.5t107 -46.5zM835 316q-10 130 -127 130q-54 0 -89.5 -34.5t-44.5 -95.5h261z" />
    <glyph glyph-name="Racute" unicode="&#x154;" horiz-adv-x="659" 
d="M82 715h240q123 0 195 -52t72 -158v-4q0 -149 -159 -192l201 -309h-144l-187 289h-85v-289h-133v715zM322 384q136 0 136 114v4q0 60 -34.5 85t-101.5 25h-107v-228h107zM322 901h136l-99 -135h-91z" />
    <glyph glyph-name="racute" unicode="&#x155;" horiz-adv-x="401" 
d="M72 523h121v-98q52 105 170 106v-113q-84 0 -127 -33.5t-43 -112.5v-272h-121v523zM225 756h134l-104 -155h-89z" />
    <glyph glyph-name="uni0156" unicode="&#x156;" horiz-adv-x="655" 
d="M82 715h240q123 0 195 -52t72 -158v-4q0 -149 -159 -192l201 -309h-144l-187 289h-85v-289h-133v715zM322 384q136 0 136 114v4q0 60 -34.5 85t-101.5 25h-107v-228h107zM235 -198l52 165l111 -22l-92 -170z" />
    <glyph glyph-name="uni0157" unicode="&#x157;" horiz-adv-x="397" 
d="M72 523h121v-98q52 105 170 106v-113q-84 0 -127 -33.5t-43 -112.5v-272h-121v523zM35 -198l52 165l111 -22l-92 -170z" />
    <glyph glyph-name="Rcaron" unicode="&#x158;" horiz-adv-x="659" 
d="M82 715h240q123 0 195 -52t72 -158v-4q0 -149 -159 -192l201 -309h-144l-187 289h-85v-289h-133v715zM322 384q136 0 136 114v4q0 60 -34.5 85t-101.5 25h-107v-228h107zM158 901h88l75 -55l74 55h86l-110 -135h-105z" />
    <glyph glyph-name="rcaron" unicode="&#x159;" horiz-adv-x="401" 
d="M72 523h121v-98q52 105 170 106v-113q-84 0 -127 -33.5t-43 -112.5v-272h-121v523zM55 753h87l75 -67l75 67h84l-113 -151h-96z" />
    <glyph glyph-name="Sacute" unicode="&#x15a;" horiz-adv-x="639" 
d="M325 -10q-139 0 -208.5 62t-78.5 170h128q7 -62 41.5 -97t117.5 -35q60 0 97.5 30t37.5 80t-31 73t-118 37q-133 19 -192.5 65t-59.5 144q0 89 69 147t180 58q237 0 260 -207h-122q-10 57 -42.5 82t-95.5 25q-59 0 -91 -25.5t-32 -68.5q0 -47 29.5 -69.5t118.5 -35.5
q134 -19 194.5 -65t60.5 -149q0 -94 -73.5 -157.5t-189.5 -63.5zM311 901h136l-99 -135h-91z" />
    <glyph glyph-name="sacute" unicode="&#x15b;" horiz-adv-x="498" 
d="M251 -10q-102 0 -158.5 44.5t-60.5 128.5h114q6 -42 29 -63t75 -21q94 0 94 67q0 31 -25.5 46.5t-86.5 25.5q-105 16 -147 51t-42 108q0 74 58.5 115.5t137.5 41.5q188 0 205 -158h-112q-8 37 -30 53.5t-63 16.5q-39 0 -61 -17t-22 -45q0 -29 22.5 -43t85.5 -24
q102 -16 149 -49t47 -111q0 -80 -54 -123.5t-155 -43.5zM254 756h134l-104 -155h-89z" />
    <glyph glyph-name="Scircumflex" unicode="&#x15c;" horiz-adv-x="639" 
d="M325 -10q-139 0 -208.5 62t-78.5 170h128q7 -62 41.5 -97t117.5 -35q60 0 97.5 30t37.5 80t-31 73t-118 37q-133 19 -192.5 65t-59.5 144q0 89 69 147t180 58q237 0 260 -207h-122q-10 57 -42.5 82t-95.5 25q-59 0 -91 -25.5t-32 -68.5q0 -47 29.5 -69.5t118.5 -35.5
q134 -19 194.5 -65t60.5 -149q0 -94 -73.5 -157.5t-189.5 -63.5zM258 901h104l108 -135h-88l-74 55l-75 -55h-86z" />
    <glyph glyph-name="scircumflex" unicode="&#x15d;" horiz-adv-x="498" 
d="M251 -10q-102 0 -158.5 44.5t-60.5 128.5h114q6 -42 29 -63t75 -21q94 0 94 67q0 31 -25.5 46.5t-86.5 25.5q-105 16 -147 51t-42 108q0 74 58.5 115.5t137.5 41.5q188 0 205 -158h-112q-8 37 -30 53.5t-63 16.5q-39 0 -61 -17t-22 -45q0 -29 22.5 -43t85.5 -24
q102 -16 149 -49t47 -111q0 -80 -54 -123.5t-155 -43.5zM197 753h96l111 -151h-86l-75 68l-76 -68h-84z" />
    <glyph glyph-name="uni015E" unicode="&#x15e;" horiz-adv-x="635" 
d="M295 -219q-48 0 -76.5 23t-33.5 65h66q6 -33 40 -33q17 0 27 9.5t10 24.5q0 14 -9.5 23t-25.5 9q-14 0 -30 -9l-34 32l40 68q-111 12 -168 72.5t-63 156.5h128q7 -62 41.5 -97t117.5 -35q60 0 97.5 30t37.5 80t-31 73t-118 37q-133 19 -192.5 65t-59.5 144q0 89 69 147
t180 58q237 0 260 -207h-122q-10 57 -42.5 82t-95.5 25q-59 0 -91 -25.5t-32 -68.5q0 -47 29.5 -69.5t118.5 -35.5q134 -19 194.5 -65t60.5 -149q0 -94 -72.5 -157.5t-188.5 -63.5l-23 -40q42 4 71 -17t29 -66q0 -41 -30 -63.5t-79 -22.5z" />
    <glyph glyph-name="uni015F" unicode="&#x15f;" horiz-adv-x="494" 
d="M232 -219q-48 0 -76.5 23t-33.5 65h66q6 -33 40 -33q17 0 27 9.5t10 24.5q0 14 -9.5 23t-25.5 9q-14 0 -30 -9l-34 32l39 68q-81 9 -125.5 52.5t-47.5 117.5h114q6 -42 29 -63t75 -21q94 0 94 67q0 31 -25.5 46.5t-86.5 25.5q-105 16 -147 51t-42 108q0 74 58.5 115.5
t137.5 41.5q188 0 205 -158h-112q-8 37 -30 53.5t-63 16.5q-39 0 -61 -17t-22 -45q0 -29 22.5 -43t85.5 -24q102 -16 149 -49t47 -111t-50.5 -121t-145.5 -46l-23 -40q42 4 71 -17t29 -66q0 -41 -30 -63.5t-79 -22.5z" />
    <glyph glyph-name="Scaron" unicode="&#x160;" horiz-adv-x="639" 
d="M325 -10q-139 0 -208.5 62t-78.5 170h128q7 -62 41.5 -97t117.5 -35q60 0 97.5 30t37.5 80t-31 73t-118 37q-133 19 -192.5 65t-59.5 144q0 89 69 147t180 58q237 0 260 -207h-122q-10 57 -42.5 82t-95.5 25q-59 0 -91 -25.5t-32 -68.5q0 -47 29.5 -69.5t118.5 -35.5
q134 -19 194.5 -65t60.5 -149q0 -94 -73.5 -157.5t-189.5 -63.5zM147 901h88l75 -55l74 55h86l-110 -135h-105z" />
    <glyph glyph-name="scaron" unicode="&#x161;" horiz-adv-x="498" 
d="M251 -10q-102 0 -158.5 44.5t-60.5 128.5h114q6 -42 29 -63t75 -21q94 0 94 67q0 31 -25.5 46.5t-86.5 25.5q-105 16 -147 51t-42 108q0 74 58.5 115.5t137.5 41.5q188 0 205 -158h-112q-8 37 -30 53.5t-63 16.5q-39 0 -61 -17t-22 -45q0 -29 22.5 -43t85.5 -24
q102 -16 149 -49t47 -111q0 -80 -54 -123.5t-155 -43.5zM82 753h87l75 -67l75 67h84l-113 -151h-96z" />
    <glyph glyph-name="Tcommaaccent" unicode="&#x162;" horiz-adv-x="588" 
d="M225 610h-199v105h532v-105h-199v-610h-134v610zM194 -198l52 165l111 -22l-92 -170z" />
    <glyph glyph-name="tcommaaccent" unicode="&#x163;" horiz-adv-x="373" 
d="M250 -9q-78 0 -118 40t-40 115v286h-70v91h70v115h121v-115h115v-91h-115v-275q0 -67 60 -67q36 0 59 10v-96q-35 -13 -82 -13zM102 -198l52 165l111 -22l-92 -170z" />
    <glyph glyph-name="Tcaron" unicode="&#x164;" horiz-adv-x="587" 
d="M225 610h-199v105h532v-105h-199v-610h-134v610zM129 901h88l75 -55l74 55h86l-110 -135h-105z" />
    <glyph glyph-name="tcaron" unicode="&#x165;" horiz-adv-x="373" 
d="M250 -9q-78 0 -118 40t-40 115v286h-70v91h70v115h121v-115h115v-91h-115v-275q0 -67 60 -67q36 0 59 10v-96q-35 -13 -82 -13zM285 765h110l-49 -175h-71z" />
    <glyph glyph-name="Tbar" unicode="&#x166;" horiz-adv-x="587" 
d="M87 405h138v205h-199v105h532v-105h-199v-205h137v-90h-137v-315h-134v315h-138v90z" />
    <glyph glyph-name="tbar" unicode="&#x167;" horiz-adv-x="373" 
d="M22 336h70v97h-70v90h70v115h121v-115h114v-90h-114v-97h114v-75h-114v-104q0 -68 60 -68q32 0 59 11v-96q-35 -13 -82 -13q-78 0 -118 40t-40 115v115h-70v75z" />
    <glyph glyph-name="Utilde" unicode="&#x168;" horiz-adv-x="727" 
d="M357 -10q-136 0 -208.5 72t-72.5 210v443h134v-433q0 -99 34 -142t114 -43q81 0 118 43t37 151v424h134v-435q0 -142 -73.5 -216t-216.5 -74zM418 768q-26 0 -63 19.5t-49 19.5q-14 0 -24 -11t-13 -29h-76q5 61 35.5 96t73.5 35q25 0 62 -20t51 -20q29 0 36 40h77
q-6 -61 -36.5 -95.5t-73.5 -34.5z" />
    <glyph glyph-name="utilde" unicode="&#x169;" horiz-adv-x="609" 
d="M247 -10q-82 0 -131 49t-49 149v335h121v-321q0 -60 25 -87.5t78 -27.5q52 0 87 33t35 92v311h121v-523h-121v82q-49 -92 -166 -92zM360 606q-26 0 -62.5 20t-48.5 20q-14 0 -24 -11t-13 -29h-75q6 62 35 96.5t72 34.5q25 0 61.5 -19.5t50.5 -19.5q29 0 36 40h75
q-6 -62 -35 -97t-72 -35z" />
    <glyph glyph-name="Umacron" unicode="&#x16a;" horiz-adv-x="727" 
d="M357 -10q-136 0 -208.5 72t-72.5 210v443h134v-433q0 -99 34 -142t114 -43q81 0 118 43t37 151v424h134v-435q0 -142 -73.5 -216t-216.5 -74zM216 861h288v-81h-288v81z" />
    <glyph glyph-name="umacron" unicode="&#x16b;" horiz-adv-x="609" 
d="M247 -10q-82 0 -131 49t-49 149v335h121v-321q0 -60 25 -87.5t78 -27.5q52 0 87 33t35 92v311h121v-523h-121v82q-49 -92 -166 -92zM162 712h280v-78h-280v78z" />
    <glyph glyph-name="Ubreve" unicode="&#x16c;" horiz-adv-x="727" 
d="M357 -10q-136 0 -208.5 72t-72.5 210v443h134v-433q0 -99 34 -142t114 -43q81 0 118 43t37 151v424h134v-435q0 -142 -73.5 -216t-216.5 -74zM359 761q-63 0 -102.5 38.5t-42.5 101.5h85q8 -56 60 -56t63 56h84q-4 -62 -45 -101t-102 -39z" />
    <glyph glyph-name="ubreve" unicode="&#x16d;" horiz-adv-x="609" 
d="M247 -10q-82 0 -131 49t-49 149v335h121v-321q0 -60 25 -87.5t78 -27.5q52 0 87 33t35 92v311h121v-523h-121v82q-49 -92 -166 -92zM301 606q-62 0 -101.5 39t-43.5 104h84q8 -58 61 -58q54 0 65 58h82q-4 -64 -45 -103.5t-102 -39.5z" />
    <glyph glyph-name="Uring" unicode="&#x16e;" horiz-adv-x="727" 
d="M357 -10q-136 0 -208.5 72t-72.5 210v443h134v-433q0 -99 34 -142t114 -43q81 0 118 43t37 151v424h134v-435q0 -142 -73.5 -216t-216.5 -74zM360 787q22 0 36 15.5t14 39.5t-14 39.5t-36 15.5q-23 0 -36.5 -15.5t-13.5 -39.5t13.5 -39.5t36.5 -15.5zM360 733
q-46 0 -79 32t-33 77t33 77t79 32t79 -32t33 -77t-33 -77t-79 -32z" />
    <glyph glyph-name="uring" unicode="&#x16f;" horiz-adv-x="609" 
d="M247 -10q-82 0 -131 49t-49 149v335h121v-321q0 -60 25 -87.5t78 -27.5q52 0 87 33t35 92v311h121v-523h-121v82q-49 -92 -166 -92zM299 616q22 0 36 16t14 39q0 24 -14 39.5t-36 15.5t-36 -15.5t-14 -39.5q0 -23 14 -39t36 -16zM299 563q-45 0 -78 32t-33 76t33 76
t78 32t78 -32t33 -76t-33 -76t-78 -32z" />
    <glyph glyph-name="Uhungarumlaut" unicode="&#x170;" horiz-adv-x="727" 
d="M357 -10q-136 0 -208.5 72t-72.5 210v443h134v-433q0 -99 34 -142t114 -43q81 0 118 43t37 151v424h134v-435q0 -142 -73.5 -216t-216.5 -74zM264 901h118l-73 -135h-83zM434 901h118l-73 -135h-83z" />
    <glyph glyph-name="uhungarumlaut" unicode="&#x171;" horiz-adv-x="609" 
d="M247 -10q-82 0 -131 49t-49 149v335h121v-321q0 -60 25 -87.5t78 -27.5q52 0 87 33t35 92v311h121v-523h-121v82q-49 -92 -166 -92zM215 756h113l-76 -155h-78zM378 756h113l-76 -155h-78z" />
    <glyph glyph-name="Uogonek" unicode="&#x172;" horiz-adv-x="727" 
d="M398 -182q-51 0 -80.5 21t-29.5 59q0 54 63 92q-133 1 -204 73t-71 209v443h134v-433q0 -99 34 -142t114 -43q81 0 118 43t37 151v424h134v-435q0 -198 -142 -262q-73 -35 -89 -51q-20 -19 -20 -42q0 -33 35 -33q25 0 43 9v-69q-30 -14 -76 -14z" />
    <glyph glyph-name="uogonek" unicode="&#x173;" horiz-adv-x="609" 
d="M469 -182q-49 0 -79 21.5t-30 59.5q0 61 82 101h-29v82q-49 -92 -166 -92q-82 0 -131 49t-49 149v335h121v-321q0 -60 25 -87.5t78 -27.5q52 0 87 33t35 92v311h121v-515q-68 -46 -68 -85q0 -33 35 -33q25 0 43 9v-67q-30 -14 -75 -14z" />
    <glyph glyph-name="Wcircumflex" unicode="&#x174;" horiz-adv-x="959" 
d="M26 715h136l124 -525l139 525h110l142 -528l128 528h124l-179 -715h-133l-141 521l-145 -521h-127zM426 901h104l108 -135h-88l-74 55l-75 -55h-86z" />
    <glyph glyph-name="wcircumflex" unicode="&#x175;" horiz-adv-x="818" 
d="M20 523h129l104 -378l111 378h101l102 -378l109 378h118l-164 -523h-123l-97 352l-106 -352h-124zM359 753h96l111 -151h-86l-75 68l-76 -68h-84z" />
    <glyph glyph-name="Ycircumflex" unicode="&#x176;" horiz-adv-x="633" 
d="M254 310l-237 405h147l161 -296l157 296h130l-224 -406v-309h-134v310zM266 901h104l108 -135h-88l-74 55l-75 -55h-86z" />
    <glyph glyph-name="ycircumflex" unicode="&#x177;" horiz-adv-x="557" 
d="M225 53l-207 470h131l139 -337l128 337h118l-285 -702h-119zM232 753h96l111 -151h-86l-75 68l-76 -68h-84z" />
    <glyph glyph-name="Ydieresis" unicode="&#x178;" horiz-adv-x="633" 
d="M254 310l-237 405h147l161 -296l157 296h130l-224 -406v-309h-134v310zM211 777q-27 0 -46.5 19t-19.5 46t19.5 46t46.5 19t46.5 -19t19.5 -46t-19.5 -46t-46.5 -19zM422 777q-27 0 -46.5 19t-19.5 46t19.5 46t46.5 19t46.5 -19t19.5 -46t-19.5 -46t-46.5 -19z" />
    <glyph glyph-name="Zacute" unicode="&#x179;" horiz-adv-x="612" 
d="M22 18l365 592h-328v105h516v-17l-357 -591h347v-107h-543v18zM307 901h136l-99 -135h-91z" />
    <glyph glyph-name="zacute" unicode="&#x17a;" horiz-adv-x="497" 
d="M17 14l277 413h-250v96h429v-17l-276 -409h268v-97h-448v14zM261 756h134l-104 -155h-89z" />
    <glyph glyph-name="Zdotaccent" unicode="&#x17b;" horiz-adv-x="612" 
d="M22 18l365 592h-328v105h516v-17l-357 -591h347v-107h-543v18zM305 775q-30 0 -50.5 20t-20.5 49t20.5 48.5t50.5 19.5t50.5 -19.5t20.5 -48.5t-21 -49t-50 -20z" />
    <glyph glyph-name="zdotaccent" unicode="&#x17c;" horiz-adv-x="497" 
d="M17 14l277 413h-250v96h429v-17l-276 -409h268v-97h-448v14zM253 611q-30 0 -50.5 20t-20.5 49t20.5 48.5t50.5 19.5t50.5 -19.5t20.5 -48.5t-21 -49t-50 -20z" />
    <glyph glyph-name="Zcaron" unicode="&#x17d;" horiz-adv-x="612" 
d="M22 18l365 592h-328v105h516v-17l-357 -591h347v-107h-543v18zM143 901h88l75 -55l74 55h86l-110 -135h-105z" />
    <glyph glyph-name="zcaron" unicode="&#x17e;" horiz-adv-x="497" 
d="M17 14l277 413h-250v96h429v-17l-276 -409h268v-97h-448v14zM91 753h87l75 -67l75 67h84l-113 -151h-96z" />
    <glyph glyph-name="uni0192" unicode="&#x192;" horiz-adv-x="417" 
d="M27 414h94l21 141q25 169 189 169q43 0 72 -11v-95q-21 10 -60 10q-70 0 -82 -82l-20 -132h125v-90h-138l-75 -506h-120l75 506h-81v90z" />
    <glyph glyph-name="Aringacute" unicode="&#x1fa;" horiz-adv-x="707" 
d="M266 715h174l236 -715h-138l-57 177h-273l-56 -177h-125zM239 274h211l-105 332zM356 800q22 0 36 15.5t14 39.5t-14 39.5t-36 15.5q-23 0 -36.5 -15.5t-13.5 -39.5t13.5 -39.5t36.5 -15.5zM356 746q-46 0 -79 32t-33 77t33 77t79 32t79 -32t33 -77t-33 -77t-79 -32z
M363 1123h136l-99 -135h-91z" />
    <glyph glyph-name="aringacute" unicode="&#x1fb;" horiz-adv-x="559" 
d="M209 -10q-77 0 -126 38.5t-49 116.5q0 86 73.5 126t194.5 40h65v27q0 55 -21 80t-74 25q-89 0 -100 -82h-117q8 87 69 130t155 43q209 0 209 -191v-343h-119v64q-58 -74 -160 -74zM238 77q58 0 93.5 28t35.5 78v52h-62q-151 0 -151 -85q0 -73 84 -73zM280 629q22 0 36 16
t14 39q0 24 -14 39.5t-36 15.5t-36 -15.5t-14 -39.5q0 -23 14 -39t36 -16zM280 576q-45 0 -78 32t-33 76t33 76t78 32t78 -32t33 -76t-33 -76t-78 -32zM294 963h136l-99 -135h-91z" />
    <glyph glyph-name="AEacute" unicode="&#x1fc;" horiz-adv-x="975" 
d="M373 715h543v-105h-312v-196h250v-100h-250v-209h329v-105h-462v183h-232l-87 -183h-130zM285 278h186v332h-27zM613 901h136l-99 -135h-91z" />
    <glyph glyph-name="aeacute" unicode="&#x1fd;" horiz-adv-x="895" 
d="M620 -10q-135 0 -199 100q-36 -52 -83.5 -76t-121.5 -24q-81 0 -131.5 38.5t-50.5 116.5q0 88 72.5 127.5t193.5 39.5h68v26q0 54 -22.5 79.5t-72.5 25.5q-92 0 -101 -82h-117q8 87 68.5 130t152.5 43q123 0 166 -76q65 76 173 76q104 0 172.5 -65.5t68.5 -200.5v-33
h-372q3 -74 37.5 -114.5t99.5 -40.5q102 0 116 80h116q-13 -82 -74 -126t-159 -44zM239 77q58 0 93.5 28t35.5 78v51h-65q-73 0 -111 -18.5t-38 -63.5q0 -75 85 -75zM736 312q-10 134 -121 134q-53 0 -87 -35t-42 -99h250zM463 756h134l-104 -155h-89z" />
    <glyph glyph-name="Oslashacute" unicode="&#x1fe;" horiz-adv-x="818" 
d="M34 18l91 98q-79 99 -79 237v8q0 157 101.5 260t260.5 103q126 0 219 -67l78 84l50 -50l-75 -81q89 -102 89 -246v-8q0 -158 -100 -262t-261 -104q-137 0 -232 76l-92 -99zM409 97q102 0 162 70.5t60 188.5v8q0 92 -37 154l-336 -364q60 -57 151 -57zM184 354
q0 -83 31 -141l333 359q-56 47 -140 47q-105 0 -164.5 -70t-59.5 -187v-8zM409 901h136l-99 -135h-91z" />
    <glyph glyph-name="oslashacute" unicode="&#x1ff;" horiz-adv-x="615" 
d="M22 4l73 79q-58 71 -58 173v8q0 120 76 195t193 75q92 0 159 -48l67 73l47 -42l-67 -73q62 -72 62 -177v-8q0 -121 -76 -195t-193 -74q-95 0 -164 50l-72 -78zM306 84q69 0 107 46t38 127v8q0 54 -18 93l-222 -241q36 -33 95 -33zM161 258q0 -47 14 -87l220 239
q-37 30 -89 30q-68 0 -106.5 -46.5t-38.5 -127.5v-8zM313 756h134l-104 -155h-89z" />
    <glyph glyph-name="uni0218" unicode="&#x218;" horiz-adv-x="636" 
d="M325 -10q-139 0 -208.5 62t-78.5 170h128q7 -62 41.5 -97t117.5 -35q60 0 97.5 30t37.5 80t-31 73t-118 37q-133 19 -192.5 65t-59.5 144q0 89 69 147t180 58q237 0 260 -207h-122q-10 57 -42.5 82t-95.5 25q-59 0 -91 -25.5t-32 -68.5q0 -47 29.5 -69.5t118.5 -35.5
q134 -19 194.5 -65t60.5 -149q0 -94 -73.5 -157.5t-189.5 -63.5zM212 -198l52 165l111 -22l-92 -170z" />
    <glyph glyph-name="uni0219" unicode="&#x219;" horiz-adv-x="494" 
d="M251 -10q-102 0 -158.5 44.5t-60.5 128.5h114q6 -42 29 -63t75 -21q94 0 94 67q0 31 -25.5 46.5t-86.5 25.5q-105 16 -147 51t-42 108q0 74 58.5 115.5t137.5 41.5q188 0 205 -158h-112q-8 37 -30 53.5t-63 16.5q-39 0 -61 -17t-22 -45q0 -29 22.5 -43t85.5 -24
q102 -16 149 -49t47 -111q0 -80 -54 -123.5t-155 -43.5zM147 -198l52 165l111 -22l-92 -170z" />
    <glyph glyph-name="uni021A" unicode="&#x21a;" horiz-adv-x="588" 
d="M225 610h-199v105h532v-105h-199v-610h-134v610zM194 -198l52 165l111 -22l-92 -170z" />
    <glyph glyph-name="uni021B" unicode="&#x21b;" horiz-adv-x="373" 
d="M250 -9q-78 0 -118 40t-40 115v286h-70v91h70v115h121v-115h115v-91h-115v-275q0 -67 60 -67q36 0 59 10v-96q-35 -13 -82 -13zM102 -198l52 165l111 -22l-92 -170z" />
    <glyph glyph-name="uni0237" unicode="&#x237;" horiz-adv-x="275" 
d="M3 -95q72 5 72 74v544h121v-541q0 -84 -44.5 -126t-148.5 -44v93z" />
    <glyph glyph-name="uni02BC" unicode="&#x2bc;" horiz-adv-x="281" 
d="M45 496l86 231l109 -43l-124 -220z" />
    <glyph glyph-name="circumflex" unicode="&#x2c6;" horiz-adv-x="404" 
d="M153 753h96l111 -151h-86l-75 68l-76 -68h-84z" />
    <glyph glyph-name="caron" unicode="&#x2c7;" horiz-adv-x="404" 
d="M39 753h87l75 -67l75 67h84l-113 -151h-96z" />
    <glyph glyph-name="breve" unicode="&#x2d8;" horiz-adv-x="404" 
d="M199 606q-62 0 -101.5 39t-43.5 104h84q8 -58 61 -58q54 0 65 58h82q-4 -64 -45 -103.5t-102 -39.5z" />
    <glyph glyph-name="dotaccent" unicode="&#x2d9;" horiz-adv-x="404" 
d="M200 611q-30 0 -50.5 20t-20.5 49t20.5 48.5t50.5 19.5t50.5 -19.5t20.5 -48.5t-21 -49t-50 -20z" />
    <glyph glyph-name="ring" unicode="&#x2da;" horiz-adv-x="404" 
d="M200 643q22 0 36 16t14 39q0 24 -14 39.5t-36 15.5t-36 -15.5t-14 -39.5q0 -23 14 -39t36 -16zM200 590q-45 0 -78 32t-33 76t33 76t78 32t78 -32t33 -76t-33 -76t-78 -32z" />
    <glyph glyph-name="ogonek" unicode="&#x2db;" horiz-adv-x="404" 
d="M213 -182q-49 0 -79 21t-30 58q0 63 82 103h82q-58 -40 -58 -77q0 -33 35 -33q25 0 43 9v-67q-30 -14 -75 -14z" />
    <glyph glyph-name="tilde" unicode="&#x2dc;" horiz-adv-x="404" 
d="M258 606q-26 0 -62.5 20t-48.5 20q-14 0 -24 -11t-13 -29h-75q6 62 35 96.5t72 34.5q25 0 61.5 -19.5t50.5 -19.5q29 0 36 40h75q-6 -62 -35 -97t-72 -35z" />
    <glyph glyph-name="hungarumlaut" unicode="&#x2dd;" horiz-adv-x="404" 
d="M121 756h113l-76 -155h-78zM284 756h113l-76 -155h-78z" />
    <glyph glyph-name="uni037E" unicode="&#x37e;" horiz-adv-x="303" 
d="M17 -90l91 237l114 -46l-131 -224zM163 285q-34 0 -57 23t-23 56t23 55.5t57 22.5q33 0 56.5 -22.5t23.5 -55.5t-23.5 -56t-56.5 -23z" />
    <glyph glyph-name="tonos" unicode="&#x384;" horiz-adv-x="400" 
d="M207 756h134l-104 -155h-89z" />
    <glyph glyph-name="dieresistonos" unicode="&#x385;" horiz-adv-x="431" 
d="M196 779h112l-80 -159h-75zM360 616q-26 0 -44 17.5t-18 43.5q0 25 18 43t44 18t44 -18t18 -43q0 -26 -18 -43.5t-44 -17.5zM71 616q-26 0 -44 17.5t-18 43.5q0 25 18 43t44 18t44 -18t18 -43q0 -26 -18 -43.5t-44 -17.5z" />
    <glyph glyph-name="Alphatonos" unicode="&#x386;" horiz-adv-x="703" 
d="M266 715h174l236 -715h-138l-57 177h-273l-56 -177h-125zM239 274h211l-105 332zM45 716h134l-104 -155h-89z" />
    <glyph glyph-name="anoteleia" unicode="&#x387;" horiz-adv-x="289" 
d="M144 248q-33 0 -56 23t-23 56t23 55.5t56 22.5q34 0 57 -22.5t23 -55.5t-23 -56t-57 -23z" />
    <glyph glyph-name="Epsilontonos" unicode="&#x388;" horiz-adv-x="584" 
d="M82 715h447v-105h-314v-196h252v-100h-252v-209h331v-105h-464v715zM-89 716h134l-104 -155h-89z" />
    <glyph glyph-name="Etatonos" unicode="&#x389;" horiz-adv-x="751" 
d="M82 715h133v-304h321v304h134v-715h-134v304h-321v-304h-133v715zM-89 716h134l-104 -155h-89z" />
    <glyph glyph-name="Iotatonos" unicode="&#x38a;" horiz-adv-x="306" 
d="M86 715h134v-715h-134v715zM-89 716h134l-104 -155h-89z" />
    <glyph glyph-name="Omicrontonos" unicode="&#x38c;" horiz-adv-x="814" 
d="M410 97q101 0 160.5 70.5t59.5 187.5v8q0 113 -59.5 184.5t-162.5 71.5q-104 0 -163.5 -70t-59.5 -187v-8q0 -116 63 -186.5t162 -70.5zM408 -10q-162 0 -262 103t-100 260v8q0 158 101.5 261t260.5 103t259.5 -101.5t100.5 -259.5v-8q0 -158 -99.5 -262t-260.5 -104z
M-22 716h134l-104 -155h-89z" />
    <glyph glyph-name="Upsilontonos" unicode="&#x38e;" horiz-adv-x="629" 
d="M254 310l-237 405h147l161 -296l157 296h130l-224 -406v-309h-134v310zM-132 716h134l-104 -155h-89z" />
    <glyph glyph-name="Omegatonos" unicode="&#x38f;" horiz-adv-x="820" 
d="M185 359q0 -189 170 -297v-62h-306v101h131q-54 34 -93.5 107t-39.5 158v7q0 143 100 247t264 104q165 0 263.5 -102t98.5 -248v-7q0 -93 -38.5 -161t-94.5 -105h131v-101h-306v62q171 98 171 297v8q0 107 -58.5 179.5t-166.5 72.5q-111 0 -168.5 -71t-57.5 -181v-8z
M-22 716h134l-104 -155h-89z" />
    <glyph glyph-name="iotadieresistonos" unicode="&#x390;" horiz-adv-x="271" 
d="M75 523h121v-523h-121v523zM139 779h112l-80 -159h-75zM303 616q-26 0 -44 17.5t-18 43.5q0 25 18 43t44 18t44 -18t18 -43q0 -26 -18 -43.5t-44 -17.5zM14 616q-26 0 -44 17.5t-18 43.5q0 25 18 43t44 18t44 -18t18 -43q0 -26 -18 -43.5t-44 -17.5z" />
    <glyph glyph-name="Alpha" unicode="&#x391;" horiz-adv-x="703" 
d="M266 715h174l236 -715h-138l-57 177h-273l-56 -177h-125zM239 274h211l-105 332z" />
    <glyph glyph-name="Beta" unicode="&#x392;" horiz-adv-x="644" 
d="M82 715h256q234 0 234 -186v-4q0 -117 -113 -152q73 -16 108 -56.5t35 -112.5v-4q0 -99 -63 -149.5t-182 -50.5h-275v715zM341 95q130 0 130 114v4q0 57 -33 84t-106 27h-120v-229h129zM322 414q65 0 93.5 25t28.5 80v4q0 51 -30 74t-94 23h-108v-206h110z" />
    <glyph glyph-name="Gamma" unicode="&#x393;" horiz-adv-x="545" 
d="M82 715h438v-105h-305v-610h-133v715z" />
    <glyph glyph-name="uni0394" unicode="&#x394;" horiz-adv-x="712" 
d="M33 18l232 697h186l228 -697v-18h-646v18zM184 107h333l-166 515z" />
    <glyph glyph-name="Epsilon" unicode="&#x395;" horiz-adv-x="584" 
d="M82 715h447v-105h-314v-196h252v-100h-252v-209h331v-105h-464v715z" />
    <glyph glyph-name="Zeta" unicode="&#x396;" horiz-adv-x="608" 
d="M22 18l365 592h-328v105h516v-17l-357 -591h347v-107h-543v18z" />
    <glyph glyph-name="Eta" unicode="&#x397;" horiz-adv-x="751" 
d="M82 715h133v-304h321v304h134v-715h-134v304h-321v-304h-133v715z" />
    <glyph glyph-name="Theta" unicode="&#x398;" horiz-adv-x="820" 
d="M411 -10q-164 0 -264.5 102.5t-100.5 260.5v8q0 159 102.5 261t262.5 102q161 0 262 -100.5t101 -259.5v-8q0 -160 -100 -263t-263 -103zM413 95q103 0 163.5 71.5t60.5 189.5v8q0 113 -60.5 185t-165.5 72q-106 0 -167 -71t-61 -188v-8q0 -116 65 -187.5t165 -71.5z
M287 408h246v-94h-246v94z" />
    <glyph glyph-name="Iota" unicode="&#x399;" horiz-adv-x="306" 
d="M86 715h134v-715h-134v715z" />
    <glyph glyph-name="Kappa" unicode="&#x39a;" horiz-adv-x="659" 
d="M82 715h133v-324l274 325h143l-296 -342l311 -374h-157l-275 334v-334h-133v715z" />
    <glyph glyph-name="Lambda" unicode="&#x39b;" horiz-adv-x="691" 
d="M664 0h-139l-186 578l-187 -578h-125l241 715h157z" />
    <glyph glyph-name="Mu" unicode="&#x39c;" horiz-adv-x="890" 
d="M82 715h178l188 -488l184 488h176v-715h-133v540l-213 -540h-43l-217 540v-540h-120v715z" />
    <glyph glyph-name="Nu" unicode="&#x39d;" horiz-adv-x="745" 
d="M82 715h159l301 -517v517h121v-715h-138l-322 548v-548h-121v715z" />
    <glyph glyph-name="Xi" unicode="&#x39e;" horiz-adv-x="595" 
d="M551 715v-109h-506v109h506zM501 411v-104h-407v104h407zM37 110h521v-110h-521v110z" />
    <glyph glyph-name="Omicron" unicode="&#x39f;" horiz-adv-x="814" 
d="M410 97q101 0 160.5 70.5t59.5 187.5v8q0 113 -59.5 184.5t-162.5 71.5q-104 0 -163.5 -70t-59.5 -187v-8q0 -116 63 -186.5t162 -70.5zM408 -10q-162 0 -262 103t-100 260v8q0 158 101.5 261t260.5 103t259.5 -101.5t100.5 -259.5v-8q0 -158 -99.5 -262t-260.5 -104z
" />
    <glyph glyph-name="Pi" unicode="&#x3a0;" horiz-adv-x="741" 
d="M82 715h577v-715h-133v606h-311v-606h-133v715z" />
    <glyph glyph-name="Rho" unicode="&#x3a1;" horiz-adv-x="609" 
d="M82 715h230q124 0 194.5 -56t70.5 -165v-4q0 -109 -71 -163.5t-191 -54.5h-100v-272h-133v715zM312 368q135 0 135 122v4q0 118 -135 118h-97v-244h97z" />
    <glyph glyph-name="Sigma" unicode="&#x3a3;" horiz-adv-x="587" 
d="M53 609v106h480v-104h-328l199 -241l-200 -261h346v-109h-500v88l206 273z" />
    <glyph glyph-name="Tau" unicode="&#x3a4;" horiz-adv-x="583" 
d="M225 610h-199v105h532v-105h-199v-610h-134v610z" />
    <glyph glyph-name="Upsilon" unicode="&#x3a5;" horiz-adv-x="629" 
d="M254 310l-237 405h147l161 -296l157 296h130l-224 -406v-309h-134v310z" />
    <glyph glyph-name="Phi" unicode="&#x3a6;" horiz-adv-x="900" 
d="M388 49q-160 8 -251 95.5t-91 212.5v6q0 127 92 214.5t250 93.5v67h124v-67q158 -6 250.5 -92t92.5 -212v-7q0 -127 -90.5 -215t-252.5 -96v-72h-124v72zM720 366q0 85 -52.5 141t-155.5 65v-423q102 8 155 64.5t53 145.5v7zM180 358q0 -86 54.5 -141.5t153.5 -66.5v422
q-105 -9 -156.5 -64.5t-51.5 -143.5v-6z" />
    <glyph glyph-name="Chi" unicode="&#x3a7;" horiz-adv-x="695" 
d="M266 367l-214 348h150l152 -254l151 254h137l-211 -345l229 -370h-152l-168 279l-168 -279h-136z" />
    <glyph glyph-name="Psi" unicode="&#x3a8;" horiz-adv-x="822" 
d="M350 178q-147 8 -219 83.5t-72 198.5v255h130v-246q0 -89 37 -134.5t124 -52.5v433h123v-432q85 9 126 54t41 146v232h123v-246q0 -126 -70.5 -204t-219.5 -87v-178h-123v178z" />
    <glyph glyph-name="uni03A9" unicode="&#x3a9;" horiz-adv-x="820" 
d="M185 359q0 -189 170 -297v-62h-306v101h131q-54 34 -93.5 107t-39.5 158v7q0 143 100 247t264 104q165 0 263.5 -102t98.5 -248v-7q0 -93 -38.5 -161t-94.5 -105h131v-101h-306v62q171 98 171 297v8q0 107 -58.5 179.5t-166.5 72.5q-111 0 -168.5 -71t-57.5 -181v-8z" />
    <glyph glyph-name="Iotadieresis" unicode="&#x3aa;" horiz-adv-x="306" 
d="M86 715h134v-715h-134v715zM47 777q-27 0 -46.5 19t-19.5 46t19.5 46t46.5 19t46.5 -19t19.5 -46t-19.5 -46t-46.5 -19zM258 777q-27 0 -46.5 19t-19.5 46t19.5 46t46.5 19t46.5 -19t19.5 -46t-19.5 -46t-46.5 -19z" />
    <glyph glyph-name="Upsilondieresis" unicode="&#x3ab;" horiz-adv-x="629" 
d="M254 310l-237 405h147l161 -296l157 296h130l-224 -406v-309h-134v310zM217 777q-27 0 -46.5 19t-19.5 46t19.5 46t46.5 19t46.5 -19t19.5 -46t-19.5 -46t-46.5 -19zM428 777q-27 0 -46.5 19t-19.5 46t19.5 46t46.5 19t46.5 -19t19.5 -46t-19.5 -46t-46.5 -19z" />
    <glyph glyph-name="alphatonos" unicode="&#x3ac;" horiz-adv-x="623" 
d="M293 86q62 0 101.5 44.5t39.5 128.5v8q0 85 -36 128.5t-99 43.5q-64 0 -100.5 -45.5t-36.5 -129.5v-8q0 -83 36.5 -126.5t94.5 -43.5zM264 -10q-97 0 -161.5 70t-64.5 193v8q0 123 67 198t164 75q107 0 161 -90v79h121v-523h-121v86q-23 -40 -68.5 -68t-97.5 -28z
M326 756h134l-104 -155h-89z" />
    <glyph glyph-name="epsilontonos" unicode="&#x3ad;" horiz-adv-x="563" 
d="M154 272q-45 8 -74 38.5t-29 72.5q0 64 56.5 107.5t176.5 43.5q220 0 241 -158h-116q-4 33 -29.5 51.5t-90.5 18.5q-115 0 -115 -73q0 -25 20.5 -44t62.5 -19h99v-82h-100q-95 0 -95 -74t124 -74q125 0 133 82h112q-7 -84 -72 -128t-175 -44q-119 0 -181.5 40t-62.5 115
q0 48 31 82t84 45zM303 756h134l-104 -155h-89z" />
    <glyph glyph-name="etatonos" unicode="&#x3ae;" horiz-adv-x="608" 
d="M72 523h120v-83q22 42 65 68t105 26q83 0 131 -51t48 -155v-507h-121v497q0 60 -25 87.5t-79 27.5q-53 0 -88.5 -32.5t-35.5 -92.5v-308h-120v523zM318 756h134l-104 -155h-89z" />
    <glyph glyph-name="iotatonos" unicode="&#x3af;" horiz-adv-x="271" 
d="M75 523h121v-523h-121v523zM148 756h134l-104 -155h-89z" />
    <glyph glyph-name="upsilondieresistonos" unicode="&#x3b0;" horiz-adv-x="599" 
d="M299 -10q-105 0 -169 60t-64 167v306h121v-308q0 -128 113 -128q112 0 112 127v309h121v-306q0 -109 -63.5 -168t-170.5 -59zM285 779h112l-80 -159h-75zM449 616q-26 0 -44 17.5t-18 43.5q0 25 18 43t44 18t44 -18t18 -43q0 -26 -18 -43.5t-44 -17.5zM160 616
q-26 0 -44 17.5t-18 43.5q0 25 18 43t44 18t44 -18t18 -43q0 -26 -18 -43.5t-44 -17.5z" />
    <glyph glyph-name="alpha" unicode="&#x3b1;" horiz-adv-x="623" 
d="M293 86q62 0 101.5 44.5t39.5 128.5v8q0 85 -36 128.5t-99 43.5q-64 0 -100.5 -45.5t-36.5 -129.5v-8q0 -83 36.5 -126.5t94.5 -43.5zM264 -10q-97 0 -161.5 70t-64.5 193v8q0 123 67 198t164 75q107 0 161 -90v79h121v-523h-121v86q-23 -40 -68.5 -68t-97.5 -28z" />
    <glyph glyph-name="beta" unicode="&#x3b2;" horiz-adv-x="619" 
d="M292 450q72 -2 107.5 30.5t35.5 87.5v4q0 49 -31.5 78.5t-88.5 29.5q-56 0 -89.5 -35.5t-33.5 -97.5v-309q0 -74 41.5 -113t94.5 -39q59 0 96 34.5t37 98.5v7q0 69 -44 103t-125 29v92zM426 412q69 -14 113.5 -64.5t44.5 -126.5v-7q0 -100 -66 -161t-167 -61
q-51 0 -94 24t-65 66v-261h-120v719q0 110 66 170t177 60q107 0 171 -52.5t64 -137.5v-4q0 -58 -33 -102t-91 -62z" />
    <glyph glyph-name="gamma" unicode="&#x3b3;" horiz-adv-x="568" 
d="M433 523h119l-207 -516v-186h-120v186l-209 516h130l144 -379z" />
    <glyph glyph-name="delta" unicode="&#x3b4;" 
d="M113 765h408v-96h-245l166 -175q64 -65 94.5 -119t30.5 -121v-7q0 -114 -75.5 -185.5t-190.5 -71.5t-189.5 71t-74.5 184v7q0 96 64 165.5t158 69.5q27 0 51 -5l-197 206v77zM443 253q0 70 -38 112.5t-103 42.5t-103 -42.5t-38 -111.5v-6q0 -73 37 -118.5t104 -45.5
q66 0 103.5 43.5t37.5 119.5v6z" />
    <glyph glyph-name="epsilon" unicode="&#x3b5;" horiz-adv-x="563" 
d="M154 272q-45 8 -74 38.5t-29 72.5q0 64 56.5 107.5t176.5 43.5q220 0 241 -158h-116q-4 33 -29.5 51.5t-90.5 18.5q-115 0 -115 -73q0 -25 20.5 -44t62.5 -19h99v-82h-100q-95 0 -95 -74t124 -74q125 0 133 82h112q-7 -84 -72 -128t-175 -44q-119 0 -181.5 40t-62.5 115
q0 48 31 82t84 45z" />
    <glyph glyph-name="zeta" unicode="&#x3b6;" horiz-adv-x="507" 
d="M262 0q-99 0 -162 58t-63 151q0 116 74.5 237t179.5 216h-221v103h428v-29q-158 -140 -247 -275.5t-89 -241.5q0 -58 33.5 -88t84.5 -30h66q74 0 111.5 -33.5t37.5 -92.5q0 -57 -23 -126h-101q16 64 16 94q0 57 -59 57h-66z" />
    <glyph glyph-name="eta" unicode="&#x3b7;" horiz-adv-x="608" 
d="M72 523h120v-83q22 42 65 68t105 26q83 0 131 -51t48 -155v-507h-121v497q0 60 -25 87.5t-79 27.5q-53 0 -88.5 -32.5t-35.5 -92.5v-308h-120v523z" />
    <glyph glyph-name="theta" unicode="&#x3b8;" horiz-adv-x="626" 
d="M571 361q0 -178 -66 -274.5t-192 -96.5q-125 0 -191.5 96t-66.5 273v44q0 175 67.5 271t190.5 96t190.5 -94t67.5 -272v-43zM313 676q-134 0 -140 -245h279q-6 245 -139 245zM313 83q135 0 140 255h-280q2 -128 36 -191.5t104 -63.5z" />
    <glyph glyph-name="iota" unicode="&#x3b9;" horiz-adv-x="271" 
d="M75 523h121v-523h-121v523z" />
    <glyph glyph-name="kappa" unicode="&#x3ba;" horiz-adv-x="541" 
d="M192 280l200 243h133l-216 -251l224 -272h-139l-202 249v-249h-120v523h120v-243z" />
    <glyph glyph-name="lambda" unicode="&#x3bb;" horiz-adv-x="568" 
d="M176 625q-10 27 -25 38.5t-40 11.5q-20 0 -62 -11v93q41 13 94 13q51 0 85 -27t57 -91l186 -511q17 -48 50 -48q23 0 38 5v-95q-22 -9 -65 -9q-91 0 -126 103l-96 283l-132 -380h-124l199 518z" />
    <glyph glyph-name="uni03BC" unicode="&#x3bc;" horiz-adv-x="609" 
d="M72 523h120v-327q0 -111 103 -111q52 0 87.5 33t35.5 93v312h120v-523h-119v78q-39 -82 -134 -82q-65 0 -93 48v-223h-120v702z" />
    <glyph glyph-name="nu" unicode="&#x3bd;" horiz-adv-x="557" 
d="M18 523h130l137 -399l135 399h119l-189 -523h-141z" />
    <glyph glyph-name="xi" unicode="&#x3be;" horiz-adv-x="525" 
d="M358 101q74 0 110.5 -33t36.5 -93q0 -57 -23 -126h-100q15 60 15 94q0 57 -58 57h-52q-112 0 -181 56.5t-69 152.5q0 77 43.5 128t112.5 68q-104 37 -104 136q0 101 102 133h-143v91h444v-98h-126q-69 0 -112 -30t-43 -88q0 -44 32.5 -71t89.5 -27h114v-100h-131
q-73 0 -114 -36.5t-41 -100.5q0 -55 38 -84t103 -29h56z" />
    <glyph glyph-name="omicron" unicode="&#x3bf;" horiz-adv-x="611" 
d="M306 84q68 0 106 46.5t38 127.5v7q0 81 -38 127.5t-106 46.5t-106.5 -46t-38.5 -127v-8q0 -81 38 -127.5t107 -46.5zM305 -10q-117 0 -192.5 73.5t-75.5 192.5v8q0 120 76 195t193 75q116 0 192 -74t76 -193v-8q0 -121 -76 -195t-193 -74z" />
    <glyph glyph-name="pi" unicode="&#x3c0;" horiz-adv-x="620" 
d="M406 430h-192v-430h-121v430h-71v93h576v-93h-72v-430h-120v430z" />
    <glyph glyph-name="rho" unicode="&#x3c1;" horiz-adv-x="615" 
d="M317 84q67 0 102 46t35 127v8q0 82 -36.5 128.5t-104.5 46.5t-104.5 -46t-36.5 -128v-8q0 -84 38 -129t107 -45zM332 -7q-50 0 -92 23.5t-65 65.5v-261h-121v445q0 121 71.5 194.5t187.5 73.5t190.5 -74t74.5 -193v-8q0 -121 -68 -193.5t-178 -72.5z" />
    <glyph glyph-name="uni03C2" unicode="&#x3c2;" horiz-adv-x="575" 
d="M161 259q0 -72 36.5 -116t108.5 -44h40q75 0 113.5 -32.5t38.5 -91.5q0 -42 -23 -126h-101q16 64 16 95q0 56 -59 56h-37q-115 0 -186 70t-71 186v8q0 121 75.5 195.5t188.5 74.5q96 0 162.5 -47.5t75.5 -148.5h-116q-15 100 -122 100q-62 0 -101 -46t-39 -125v-8z" />
    <glyph glyph-name="sigma" unicode="&#x3c3;" horiz-adv-x="630" 
d="M305 -10q-117 0 -192.5 73.5t-75.5 192.5v8q0 119 73 189t194 70h301v-93h-131q44 -21 71 -65.5t27 -102.5v-8q0 -119 -74.5 -191.5t-192.5 -72.5zM306 84q68 0 106 46.5t38 126.5v8q0 81 -37.5 124.5t-106.5 43.5q-70 0 -107.5 -43.5t-37.5 -122.5v-9q0 -81 38 -127.5
t107 -46.5z" />
    <glyph glyph-name="tau" unicode="&#x3c4;" horiz-adv-x="488" 
d="M343 -7q-85 0 -126 48t-41 127v262h-154v93h436v-93h-161v-257q0 -84 73 -84q41 0 65 10v-95q-36 -11 -92 -11z" />
    <glyph glyph-name="upsilon" unicode="&#x3c5;" horiz-adv-x="599" 
d="M299 -10q-105 0 -169 60t-64 167v306h121v-308q0 -128 113 -128q112 0 112 127v309h121v-306q0 -109 -63.5 -168t-170.5 -59z" />
    <glyph glyph-name="phi" unicode="&#x3c6;" horiz-adv-x="782" 
d="M745 265q0 -128 -81 -199t-214 -73v-172h-120v172q-140 5 -216.5 74t-76.5 189v8q0 111 61 181t167 85v-93q-106 -36 -106 -175v-8q0 -78 40 -120.5t131 -49.5v445q33 5 91 5q155 0 239.5 -73.5t84.5 -187.5v-8zM623 271q0 78 -44 123.5t-129 46.5v-357q173 6 173 180v7z
" />
    <glyph glyph-name="chi" unicode="&#x3c7;" horiz-adv-x="562" 
d="M220 186l-110 212q-18 34 -51 34q-15 0 -37 -8v93q29 13 70 13t68.5 -16.5t47.5 -56.5l90 -176l116 242h125l-183 -345l116 -219q23 -44 57 -44q11 0 31 5v-95q-33 -10 -63 -10q-80 0 -130 97l-88 172l-132 -263h-122z" />
    <glyph glyph-name="psi" unicode="&#x3c8;" horiz-adv-x="775" 
d="M179 249q0 -148 148 -162v436h120v-436q149 15 149 162v274h120v-273q0 -113 -69 -179.5t-200 -74.5v-175h-120v175q-133 8 -200.5 75.5t-67.5 183.5v268h120v-274z" />
    <glyph glyph-name="omega" unicode="&#x3c9;" horiz-adv-x="788" 
d="M454 198q0 -56 22 -85t59 -29q45 0 68.5 40t23.5 115v7q0 173 -122 195v94q122 -12 184 -89.5t62 -199.5v-8q0 -110 -54.5 -179t-146.5 -69q-115 0 -156 106q-16 -47 -55 -76.5t-100 -29.5q-94 0 -148 69t-54 179v8q0 122 63 199.5t183 89.5v-94q-122 -20 -122 -194v-8
q0 -155 93 -155q37 0 58.5 30t21.5 84v152h120v-152z" />
    <glyph glyph-name="iotadieresis" unicode="&#x3ca;" horiz-adv-x="271" 
d="M75 523h121v-523h-121v523zM37 613q-27 0 -46.5 19t-19.5 46q0 26 19.5 45.5t46.5 19.5t46.5 -19.5t19.5 -45.5q0 -27 -19.5 -46t-46.5 -19zM235 613q-28 0 -47 19t-19 46q0 26 19.5 45.5t46.5 19.5t46.5 -19.5t19.5 -45.5q0 -27 -19.5 -46t-46.5 -19z" />
    <glyph glyph-name="upsilondieresis" unicode="&#x3cb;" horiz-adv-x="599" 
d="M299 -10q-105 0 -169 60t-64 167v306h121v-308q0 -128 113 -128q112 0 112 127v309h121v-306q0 -109 -63.5 -168t-170.5 -59zM200 613q-27 0 -46.5 19t-19.5 46q0 26 19.5 45.5t46.5 19.5t46.5 -19.5t19.5 -45.5q0 -27 -19.5 -46t-46.5 -19zM398 613q-28 0 -47 19t-19 46
q0 26 19 45.5t47 19.5q27 0 46.5 -19.5t19.5 -45.5q0 -27 -19.5 -46t-46.5 -19z" />
    <glyph glyph-name="omicrontonos" unicode="&#x3cc;" horiz-adv-x="611" 
d="M306 84q68 0 106 46.5t38 127.5v7q0 81 -38 127.5t-106 46.5t-106.5 -46t-38.5 -127v-8q0 -81 38 -127.5t107 -46.5zM305 -10q-117 0 -192.5 73.5t-75.5 192.5v8q0 120 76 195t193 75q116 0 192 -74t76 -193v-8q0 -121 -76 -195t-193 -74zM319 756h134l-104 -155h-89z
" />
    <glyph glyph-name="upsilontonos" unicode="&#x3cd;" horiz-adv-x="599" 
d="M299 -10q-105 0 -169 60t-64 167v306h121v-308q0 -128 113 -128q112 0 112 127v309h121v-306q0 -109 -63.5 -168t-170.5 -59zM309 756h134l-104 -155h-89z" />
    <glyph glyph-name="omegatonos" unicode="&#x3ce;" horiz-adv-x="788" 
d="M454 198q0 -56 22 -85t59 -29q45 0 68.5 40t23.5 115v7q0 173 -122 195v94q122 -12 184 -89.5t62 -199.5v-8q0 -110 -54.5 -179t-146.5 -69q-115 0 -156 106q-16 -47 -55 -76.5t-100 -29.5q-94 0 -148 69t-54 179v8q0 122 63 199.5t183 89.5v-94q-122 -20 -122 -194v-8
q0 -155 93 -155q37 0 58.5 30t21.5 84v152h120v-152zM411 756h134l-104 -155h-89z" />
    <glyph glyph-name="uni0401" unicode="&#x401;" horiz-adv-x="584" 
d="M82 715h447v-105h-314v-196h252v-100h-252v-209h331v-105h-464v715zM207 777q-27 0 -46.5 19t-19.5 46t19.5 46t46.5 19t46.5 -19t19.5 -46t-19.5 -46t-46.5 -19zM418 777q-27 0 -46.5 19t-19.5 46t19.5 46t46.5 19t46.5 -19t19.5 -46t-19.5 -46t-46.5 -19z" />
    <glyph glyph-name="uni0402" unicode="&#x402;" horiz-adv-x="795" 
d="M359 385q20 20 64.5 38t106.5 18q110 0 167 -60t57 -167q0 -114 -52 -171t-144 -57q-56 0 -94 20v104q36 -17 70 -17q87 0 87 120q0 60 -29.5 91.5t-97.5 31.5q-46 0 -82 -19.5t-53 -41.5v-275h-134v610h-199v105h538v-105h-205v-225z" />
    <glyph glyph-name="uni0403" unicode="&#x403;" horiz-adv-x="549" 
d="M82 715h433v-107h-299v-608h-134v715zM305 901h136l-99 -135h-91z" />
    <glyph glyph-name="uni0404" unicode="&#x404;" horiz-adv-x="741" 
d="M708 248q-18 -127 -100 -192.5t-213 -65.5q-166 0 -257.5 98t-91.5 265v8q0 160 98 262.5t249 102.5q128 0 210.5 -63t96.5 -185h-135q-11 72 -52.5 107t-118.5 35q-84 0 -138.5 -54.5t-65.5 -150.5h302v-102h-303q8 -103 61.5 -159.5t144.5 -56.5q76 0 124 38.5
t59 112.5h130z" />
    <glyph glyph-name="uni0405" unicode="&#x405;" horiz-adv-x="635" 
d="M325 -10q-139 0 -208.5 62t-78.5 170h128q7 -62 41.5 -97t117.5 -35q60 0 97.5 30t37.5 80t-31 73t-118 37q-133 19 -192.5 65t-59.5 144q0 89 69 147t180 58q237 0 260 -207h-122q-10 57 -42.5 82t-95.5 25q-59 0 -91 -25.5t-32 -68.5q0 -47 29.5 -69.5t118.5 -35.5
q134 -19 194.5 -65t60.5 -149q0 -94 -73.5 -157.5t-189.5 -63.5z" />
    <glyph glyph-name="uni0406" unicode="&#x406;" horiz-adv-x="307" 
d="M86 715h134v-715h-134v715z" />
    <glyph glyph-name="uni0407" unicode="&#x407;" horiz-adv-x="307" 
d="M86 715h134v-715h-134v715zM47 777q-27 0 -46.5 19t-19.5 46t19.5 46t46.5 19t46.5 -19t19.5 -46t-19.5 -46t-46.5 -19zM258 777q-27 0 -46.5 19t-19.5 46t19.5 46t46.5 19t46.5 -19t19.5 -46t-19.5 -46t-46.5 -19z" />
    <glyph glyph-name="uni0408" unicode="&#x408;" horiz-adv-x="443" 
d="M148 -9q-72 0 -112 21v104q41 -18 92 -18q107 0 107 122v495h134v-498q0 -113 -59 -169.5t-162 -56.5z" />
    <glyph glyph-name="uni0409" unicode="&#x409;" horiz-adv-x="1011" 
d="M493 608h-214q-9 -251 -14 -326q-4 -53 -11 -94.5t-21 -79.5t-35 -63t-52.5 -40t-72.5 -15q-22 0 -37 5q-8 2 -13 5v114l8 -2q14 -2 24 -2q41 0 61 44t29 138q13 170 13 423h468v-275h91q120 0 190.5 -53t70.5 -162v-4q0 -109 -70.5 -165t-193.5 -56h-221v608zM714 103
q135 0 135 119v4q0 117 -135 117h-88v-240h88z" />
    <glyph glyph-name="uni040A" unicode="&#x40a;" horiz-adv-x="1035" 
d="M738 103q135 0 135 119v4q0 117 -135 117h-87v-240h87zM518 304h-302v-304h-134v715h134v-304h302v304h133v-275h90q120 0 190.5 -53t70.5 -162v-4q0 -109 -70.5 -165t-193.5 -56h-220v304z" />
    <glyph glyph-name="uni040B" unicode="&#x40b;" horiz-adv-x="805" 
d="M359 385q16 16 41 28q50 28 125 28q223 0 223 -252v-189h-133v189q0 76 -27 111.5t-97 35.5q-60 0 -101 -29q-19 -12 -31 -28v-279h-134v610h-199v105h538v-105h-205v-225z" />
    <glyph glyph-name="uni040C" unicode="&#x40c;" horiz-adv-x="659" 
d="M344 901h136l-99 -135h-91zM82 715h133v-324l274 325h143l-296 -342l311 -374h-157l-275 334v-334h-133v715z" />
    <glyph glyph-name="uni040D" unicode="&#x40d;" horiz-adv-x="763" 
d="M82 0v715h134v-536l332 536h134v-715h-134v539l-332 -539h-134zM247 901h136l53 -135h-91z" />
    <glyph glyph-name="uni040E" unicode="&#x40e;" horiz-adv-x="617" 
d="M324 761q-63 0 -102 38.5t-43 101.5h91q6 -65 54 -65q51 0 58 65h90q-4 -63 -44.5 -101.5t-103.5 -38.5zM153 -9q-43 0 -54 11v110q24 -6 46 -6q72 0 113 81l-243 528h140l166 -381l162 381h128l-239 -541q-42 -93 -88.5 -138t-130.5 -45z" />
    <glyph glyph-name="uni040F" unicode="&#x40f;" horiz-adv-x="741" 
d="M82 0v715h134v-608h310v608h134v-715h-231l-2 -130h-112l-2 130h-231z" />
    <glyph glyph-name="uni0410" unicode="&#x410;" horiz-adv-x="703" 
d="M266 715h174l236 -715h-138l-57 177h-273l-56 -177h-125zM239 274h211l-105 332z" />
    <glyph glyph-name="uni0411" unicode="&#x411;" horiz-adv-x="632" 
d="M593 215q0 -104 -66 -159.5t-190 -55.5h-255v715h449v-105h-317v-181h126q121 0 187 -52.5t66 -157.5v-4zM333 102q132 0 132 114v4q0 113 -137 113h-114v-231h119z" />
    <glyph glyph-name="uni0412" unicode="&#x412;" horiz-adv-x="644" 
d="M82 715h256q234 0 234 -186v-4q0 -117 -113 -152q73 -16 108 -56.5t35 -112.5v-4q0 -99 -63 -149.5t-182 -50.5h-275v715zM341 95q130 0 130 114v4q0 57 -33 84t-106 27h-120v-229h129zM322 414q65 0 93.5 25t28.5 80v4q0 51 -30 74t-94 23h-108v-206h110z" />
    <glyph glyph-name="uni0413" unicode="&#x413;" horiz-adv-x="549" 
d="M82 715h433v-107h-299v-608h-134v715z" />
    <glyph glyph-name="uni0414" unicode="&#x414;" horiz-adv-x="724" 
d="M244 286q-12 -125 -45 -179h296v502h-235q-7 -202 -16 -323zM117 -130h-114v237h45q34 14 51 58.5t26 129.5q16 205 16 420h486v-608h85v-237h-115l-5 130h-470z" />
    <glyph glyph-name="uni0415" unicode="&#x415;" horiz-adv-x="584" 
d="M82 715h447v-105h-314v-196h252v-100h-252v-209h331v-105h-464v715z" />
    <glyph glyph-name="uni0416" unicode="&#x416;" horiz-adv-x="937" 
d="M402 337l-242 -337h-145l273 369l-263 346h141l236 -326v326h131v-326l237 326h138l-261 -340l276 -375h-150l-240 336v-336h-131v337z" />
    <glyph glyph-name="uni0417" unicode="&#x417;" horiz-adv-x="626" 
d="M308 -10q-121 0 -192 65t-83 177h127q20 -135 149 -135q67 0 102 31.5t35 88.5q0 56 -31 80.5t-105 24.5h-81v92h79q114 0 114 106q0 48 -29 73.5t-83 25.5q-58 0 -88.5 -28.5t-42.5 -87.5h-125q13 108 80.5 165t180.5 57q107 0 173.5 -54t66.5 -141q0 -58 -30 -100
t-89 -59q72 -11 109.5 -52.5t37.5 -108.5q0 -98 -76.5 -159t-198.5 -61z" />
    <glyph glyph-name="uni0418" unicode="&#x418;" horiz-adv-x="763" 
d="M82 0v715h134v-536l332 536h134v-715h-134v539l-332 -539h-134z" />
    <glyph glyph-name="uni0419" unicode="&#x419;" horiz-adv-x="763" 
d="M380 761q-63 0 -102 38.5t-43 101.5h92q6 -65 53 -65q26 0 41 18t18 47h89q-4 -63 -44.5 -101.5t-103.5 -38.5zM82 0v715h134v-536l332 536h134v-715h-134v539l-332 -539h-134z" />
    <glyph glyph-name="uni041A" unicode="&#x41a;" horiz-adv-x="659" 
d="M82 715h133v-324l274 325h143l-296 -342l311 -374h-157l-275 334v-334h-133v715z" />
    <glyph glyph-name="uni041B" unicode="&#x41b;" horiz-adv-x="715" 
d="M263 259q-11 -127 -54 -198t-136 -71q-22 0 -37 5q-8 2 -13 5v114l8 -2q14 -2 24 -2q40 0 59.5 41.5t28.5 132.5q15 196 15 431h475v-715h-134v608h-220q-6 -211 -16 -349z" />
    <glyph glyph-name="uni041C" unicode="&#x41c;" horiz-adv-x="890" 
d="M82 715h178l188 -488l184 488h176v-715h-133v540l-213 -540h-43l-217 540v-540h-120v715z" />
    <glyph glyph-name="uni041D" unicode="&#x41d;" horiz-adv-x="751" 
d="M82 715h133v-304h321v304h134v-715h-134v304h-321v-304h-133v715z" />
    <glyph glyph-name="uni041E" unicode="&#x41e;" horiz-adv-x="814" 
d="M410 97q101 0 160.5 70.5t59.5 187.5v8q0 113 -59.5 184.5t-162.5 71.5q-104 0 -163.5 -70t-59.5 -187v-8q0 -116 63 -186.5t162 -70.5zM408 -10q-162 0 -262 103t-100 260v8q0 158 101.5 261t260.5 103t259.5 -101.5t100.5 -259.5v-8q0 -158 -99.5 -262t-260.5 -104z
" />
    <glyph glyph-name="uni041F" unicode="&#x41f;" horiz-adv-x="741" 
d="M526 608h-310v-608h-134v715h578v-715h-134v608z" />
    <glyph glyph-name="uni0420" unicode="&#x420;" horiz-adv-x="609" 
d="M82 715h230q124 0 194.5 -56t70.5 -165v-4q0 -109 -71 -163.5t-191 -54.5h-100v-272h-133v715zM312 368q135 0 135 122v4q0 118 -135 118h-97v-244h97z" />
    <glyph glyph-name="uni0421" unicode="&#x421;" horiz-adv-x="741" 
d="M395 -10q-166 0 -257.5 98t-91.5 265v8q0 160 98 262.5t249 102.5q128 0 211.5 -64t95.5 -186h-135q-11 73 -52.5 108.5t-118.5 35.5q-94 0 -151 -69.5t-57 -188.5v-8q0 -121 55 -188.5t154 -67.5q76 0 124 38.5t59 112.5h130q-15 -127 -98.5 -193t-214.5 -66z" />
    <glyph glyph-name="uni0422" unicode="&#x422;" horiz-adv-x="583" 
d="M225 610h-199v105h532v-105h-199v-610h-134v610z" />
    <glyph glyph-name="uni0423" unicode="&#x423;" horiz-adv-x="617" 
d="M153 -9q-43 0 -54 11v110q24 -6 46 -6q72 0 113 81l-243 528h140l166 -381l162 381h128l-239 -541q-42 -93 -88.5 -138t-130.5 -45z" />
    <glyph glyph-name="uni0424" unicode="&#x424;" horiz-adv-x="866" 
d="M499 634q149 -4 237.5 -71t88.5 -198v-8q-2 -131 -93 -200t-233 -71v-96h-132v96q-148 2 -237 70.5t-89 198.5v6q0 132 91 200.5t235 72.5v95h132v-95zM367 537q-89 -4 -140.5 -43.5t-51.5 -132.5v-7q0 -167 192 -172v355zM499 183q188 5 192 174v8q0 90 -50.5 129
t-141.5 43v-354z" />
    <glyph glyph-name="uni0425" unicode="&#x425;" horiz-adv-x="696" 
d="M266 367l-214 348h150l152 -254l151 254h137l-211 -345l229 -370h-152l-168 279l-168 -279h-136z" />
    <glyph glyph-name="uni0426" unicode="&#x426;" horiz-adv-x="756" 
d="M629 -130l-5 130h-542v715h134v-608h310v608h134v-608h83v-237h-114z" />
    <glyph glyph-name="uni0427" unicode="&#x427;" horiz-adv-x="699" 
d="M484 0v318q-18 -15 -47 -28q-58 -28 -136 -28q-118 0 -181 69t-63 203v181h134v-187q0 -161 134 -161q75 0 123 31q22 13 36 32v285h133v-715h-133z" />
    <glyph glyph-name="uni0428" unicode="&#x428;" horiz-adv-x="1017" 
d="M82 715h134v-608h226v608h134v-608h226v608h133v-715h-853v715z" />
    <glyph glyph-name="uni0429" unicode="&#x429;" horiz-adv-x="1031" 
d="M905 -130l-5 130h-818v715h134v-608h226v608h134v-608h226v608h133v-608h84v-237h-114z" />
    <glyph glyph-name="uni042A" unicode="&#x42a;" horiz-adv-x="736" 
d="M209 609h-183v106h316v-271h101q120 0 190.5 -54t70.5 -163v-4q0 -110 -71 -166.5t-194 -56.5h-230v609zM440 103q134 0 134 121v4q0 119 -134 119h-98v-244h98z" />
    <glyph glyph-name="uni042B" unicode="&#x42b;" horiz-adv-x="859" 
d="M82 715h133v-271h93q121 0 191.5 -53.5t70.5 -163.5v-4q0 -110 -71 -166.5t-194 -56.5h-223v715zM777 0h-133v715h133v-715zM305 103q135 0 135 121v4q0 119 -135 119h-90v-244h90z" />
    <glyph glyph-name="uni042C" unicode="&#x42c;" horiz-adv-x="609" 
d="M82 715h133v-271h100q120 0 190.5 -54t70.5 -163v-4q0 -110 -70.5 -166.5t-193.5 -56.5h-230v715zM312 103q135 0 135 121v4q0 119 -135 119h-97v-244h97z" />
    <glyph glyph-name="uni042D" unicode="&#x42d;" horiz-adv-x="741" 
d="M345 -10q-127 0 -213 65.5t-98 184.5h132q24 -144 180 -144q88 0 143 57t63 159h-302v102h303q-11 99 -62.5 152t-137.5 53q-155 0 -177 -148h-133q18 127 98.5 191t213.5 64q153 0 246.5 -98t93.5 -259v-8q0 -167 -94.5 -269t-255.5 -102z" />
    <glyph glyph-name="uni042E" unicode="&#x42e;" horiz-adv-x="1054" 
d="M659 -10q-145 0 -239 87.5t-109 226.5h-95v-304h-134v715h134v-304h96q16 138 111 225.5t236 87.5q155 0 252 -101.5t97 -258.5v-8q0 -159 -96 -262.5t-253 -103.5zM661 97q98 0 153.5 70.5t55.5 188.5v8q0 114 -55.5 184.5t-155.5 70.5t-156 -69.5t-56 -187.5v-8
q0 -116 59.5 -186.5t154.5 -70.5z" />
    <glyph glyph-name="uni042F" unicode="&#x42f;" horiz-adv-x="656" 
d="M341 612q-67 0 -101 -25.5t-34 -85.5v-4q0 -116 136 -116h100v231h-101zM164 0h-145l213 308q-73 15 -115 62.5t-42 129.5v4q0 107 72 159t194 52h234v-715h-133v287h-85z" />
    <glyph glyph-name="uni0430" unicode="&#x430;" horiz-adv-x="555" 
d="M209 -10q-77 0 -126 38.5t-49 116.5q0 86 73.5 126t194.5 40h65v27q0 55 -21 80t-74 25q-89 0 -100 -82h-117q8 87 69 130t155 43q209 0 209 -191v-343h-119v64q-58 -74 -160 -74zM238 77q58 0 93.5 28t35.5 78v52h-62q-151 0 -151 -85q0 -73 84 -73z" />
    <glyph glyph-name="uni0431" unicode="&#x431;" horiz-adv-x="616" 
d="M310 -10q-125 0 -196.5 79.5t-71.5 239.5v37q0 400 303 415l32 1q119 6 155 19v-95q-47 -20 -157 -26l-26 -2q-105 -6 -154.5 -68t-59.5 -179h5q59 115 197 115q108 0 175 -73.5t67 -187.5v-6q0 -123 -76 -196t-193 -73zM311 84q68 0 106 45.5t38 128.5v4q0 81 -35.5 125
t-103.5 44q-70 0 -110 -45.5t-40 -126.5v-5q0 -79 38.5 -124.5t106.5 -45.5z" />
    <glyph glyph-name="uni0432" unicode="&#x432;" horiz-adv-x="536" 
d="M72 523h211q191 0 191 -131v-2q0 -93 -93 -115q116 -24 116 -118v-3q0 -75 -50.5 -114.5t-144.5 -39.5h-230v523zM193 442v-133h73q44 0 64 16.5t20 52.5v2q0 35 -21.5 48.5t-66.5 13.5h-69zM193 228v-147h86q94 0 94 72v2q0 73 -90 73h-90z" />
    <glyph glyph-name="uni0433" unicode="&#x433;" horiz-adv-x="445" 
d="M193 433v-433h-121v523h349v-90h-228z" />
    <glyph glyph-name="uni0434" unicode="&#x434;" horiz-adv-x="596" 
d="M212 222q-11 -92 -31 -132h203v344h-159q-8 -163 -13 -212zM116 -127h-103v217h33q26 9 38 42.5t20 97.5q16 129 16 293h384v-433h76v-217h-103l-4 127h-353z" />
    <glyph glyph-name="uni0435" unicode="&#x435;" horiz-adv-x="580" 
d="M302 -10q-118 0 -191.5 72t-73.5 194v8q0 120 73.5 195t186.5 75q106 0 176.5 -66t70.5 -198v-35h-383q3 -75 39.5 -115t104.5 -40q106 0 120 80h117q-13 -83 -75.5 -126.5t-164.5 -43.5zM424 316q-10 130 -127 130q-54 0 -89.5 -34.5t-44.5 -95.5h261z" />
    <glyph glyph-name="uni0436" unicode="&#x436;" horiz-adv-x="747" 
d="M314 259l-170 -259h-131l191 280l-176 243h126l160 -237v237h118v-237l160 237h126l-176 -241l192 -282h-133l-169 259v-259h-118v259z" />
    <glyph glyph-name="uni0437" unicode="&#x437;" horiz-adv-x="513" 
d="M453 390q0 -44 -24 -75t-71 -40q116 -19 116 -117v-3q0 -72 -58.5 -118.5t-156.5 -46.5q-104 0 -161 47t-65 135h111q17 -90 114 -90q91 0 91 74v3q0 69 -89 69h-72v81h62q78 0 78 65v3q0 62 -77 62q-76 0 -94 -73h-110q9 85 67 126.5t142 41.5q86 0 141.5 -38t55.5 -103
v-3z" />
    <glyph glyph-name="uni0438" unicode="&#x438;" horiz-adv-x="606" 
d="M72 0v523h121v-370l226 370h120v-523h-120v370l-226 -370h-121z" />
    <glyph glyph-name="uni0439" unicode="&#x439;" horiz-adv-x="606" 
d="M303 607q-63 0 -102 38.5t-43 101.5h91q6 -65 54 -65q51 0 58 65h90q-4 -63 -44.5 -101.5t-103.5 -38.5zM72 0v523h121v-370l226 370h120v-523h-120v370l-226 -370h-121z" />
    <glyph glyph-name="uni043A" unicode="&#x43a;" horiz-adv-x="540" 
d="M193 256v-256h-121v523h121v-232l187 232h132l-203 -242l220 -281h-140z" />
    <glyph glyph-name="uni043B" unicode="&#x43b;" horiz-adv-x="572" 
d="M214 210q-10 -112 -43.5 -165t-104.5 -53q-24 0 -34 3q-2 1 -5.5 2.5t-4.5 1.5v101l6 -2q10 -2 18 -2q28 0 41.5 33.5t20.5 100.5q2 19 3 49t2.5 68.5t2.5 61.5l3 114h381v-523h-120v433h-155q-8 -181 -11 -223z" />
    <glyph glyph-name="uni043C" unicode="&#x43c;" horiz-adv-x="731" 
d="M176 395v-395h-104v523h167l131 -326l132 326h157v-523h-119v395l-165 -395h-40z" />
    <glyph glyph-name="uni043D" unicode="&#x43d;" horiz-adv-x="603" 
d="M410 222h-217v-222h-121v523h121v-211h217v211h121v-523h-121v222z" />
    <glyph glyph-name="uni043E" unicode="&#x43e;" horiz-adv-x="611" 
d="M306 84q68 0 106 46.5t38 127.5v7q0 81 -38 127.5t-106 46.5t-106.5 -46t-38.5 -127v-8q0 -81 38 -127.5t107 -46.5zM305 -10q-117 0 -192.5 73.5t-75.5 192.5v8q0 120 76 195t193 75q116 0 192 -74t76 -193v-8q0 -121 -76 -195t-193 -74z" />
    <glyph glyph-name="uni043F" unicode="&#x43f;" horiz-adv-x="593" 
d="M400 433h-207v-433h-121v523h449v-523h-121v433z" />
    <glyph glyph-name="uni0440" unicode="&#x440;" horiz-adv-x="633" 
d="M72 523h121v-84q23 40 69.5 67.5t101.5 27.5q101 0 166.5 -71.5t65.5 -194.5v-8q0 -124 -64.5 -197t-167.5 -73q-60 0 -104.5 25.5t-66.5 66.5v-261h-121v702zM334 86q67 0 102.5 44t35.5 128v8q0 84 -38.5 128.5t-100.5 44.5q-66 0 -105 -44t-39 -129v-8
q0 -85 38.5 -128.5t106.5 -43.5z" />
    <glyph glyph-name="uni0441" unicode="&#x441;" horiz-adv-x="575" 
d="M301 -10q-115 0 -189.5 71.5t-74.5 193.5v8q0 121 75.5 196t188.5 75q96 0 163 -47.5t76 -148.5h-117q-15 99 -120 99q-63 0 -102.5 -46t-39.5 -126v-8q0 -85 38.5 -129.5t106.5 -44.5q50 0 85 29t41 83h111q-6 -91 -72 -148t-170 -57z" />
    <glyph glyph-name="uni0442" unicode="&#x442;" horiz-adv-x="485" 
d="M463 433h-160v-433h-121v433h-160v90h441v-90z" />
    <glyph glyph-name="uni0443" unicode="&#x443;" horiz-adv-x="553" 
d="M225 53l-207 470h131l139 -337l128 337h118l-285 -702h-119z" />
    <glyph glyph-name="uni0444" unicode="&#x444;" horiz-adv-x="752" 
d="M436 533q121 -6 198 -75t77 -190v-8q0 -122 -77.5 -193.5t-197.5 -75.5v-170h-119v170q-122 6 -199 74.5t-77 190.5v8q0 122 77 192.5t199 76.5v232h119v-232zM436 79q69 4 110.5 51t41.5 127v7q0 83 -41 129.5t-111 50.5v-365zM317 444q-70 -3 -111.5 -49.5
t-41.5 -127.5v-8q0 -83 41 -129t112 -50v364z" />
    <glyph glyph-name="uni0445" unicode="&#x445;" horiz-adv-x="556" 
d="M203 268l-170 255h140l109 -169l108 169h127l-169 -246l187 -277h-141l-122 189l-125 -189h-126z" />
    <glyph glyph-name="uni0446" unicode="&#x446;" horiz-adv-x="613" 
d="M496 -127l-6 127h-418v523h121v-433h207v433h121v-433h76v-217h-101z" />
    <glyph glyph-name="uni0447" unicode="&#x447;" horiz-adv-x="571" 
d="M378 0v232q-53 -59 -152 -59q-77 0 -124 49.5t-47 149.5v151h120v-138q0 -60 23 -87.5t72 -27.5q73 0 108 50v203h121v-523h-121z" />
    <glyph glyph-name="uni0448" unicode="&#x448;" horiz-adv-x="825" 
d="M72 523h121v-433h159v433h121v-433h159v433h121v-523h-681v523z" />
    <glyph glyph-name="uni0449" unicode="&#x449;" horiz-adv-x="845" 
d="M728 -127l-6 127h-650v523h121v-433h159v433h121v-433h159v433h121v-433h76v-217h-101z" />
    <glyph glyph-name="uni044A" unicode="&#x44a;" 
d="M159 433h-137v90h257v-172h94q91 0 146 -44t55 -130v-3q0 -85 -54.5 -129.5t-149.5 -44.5h-211v433zM355 88q50 0 73.5 20.5t23.5 66.5v3q0 85 -97 85h-76v-175h76z" />
    <glyph glyph-name="uni044B" unicode="&#x44b;" horiz-adv-x="734" 
d="M541 523h121v-523h-121v523zM72 523h121v-172h89q91 0 146 -44t55 -130v-3q0 -85 -54.5 -129.5t-149.5 -44.5h-207v523zM265 88q50 0 73.5 20.5t23.5 66.5v3q0 85 -97 85h-72v-175h72z" />
    <glyph glyph-name="uni044C" unicode="&#x44c;" horiz-adv-x="517" 
d="M72 523h121v-172h94q91 0 146 -46t55 -131v-3q0 -86 -54 -128.5t-150 -42.5h-212v523zM269 87q97 0 97 85v3q0 88 -97 88h-76v-176h76z" />
    <glyph glyph-name="uni044D" unicode="&#x44d;" horiz-adv-x="575" 
d="M279 -10q-106 0 -169 48t-75 145h113q18 -100 127 -100q54 0 91 37.5t45 103.5h-222v83h222q-16 130 -139 130q-49 0 -82 -26.5t-43 -76.5h-113q8 92 75.5 146t164.5 54q118 0 191 -71t73 -193v-8q0 -122 -74.5 -197t-184.5 -75z" />
    <glyph glyph-name="uni044E" unicode="&#x44e;" horiz-adv-x="808" 
d="M511 -10q-101 0 -168.5 58.5t-81.5 157.5l-3 16h-65v-222h-121v523h121v-211h67q14 102 82 162t170 60q115 0 187 -73.5t72 -193.5v-8q0 -121 -73 -195t-187 -74zM512 84q65 0 100 46.5t35 127.5v7q0 82 -35 128.5t-100 46.5q-64 0 -99 -46t-35 -127v-8
q0 -82 34.5 -128.5t99.5 -46.5z" />
    <glyph glyph-name="uni044F" unicode="&#x44f;" horiz-adv-x="534" 
d="M273 435q-97 0 -97 -79v-3q0 -40 23 -59t74 -19h74v160h-74zM151 0h-133l143 215q-107 33 -107 139v3q0 80 54 123t149 43h210v-523h-120v192h-72z" />
    <glyph glyph-name="uni0451" unicode="&#x451;" horiz-adv-x="580" 
d="M302 -10q-118 0 -191.5 72t-73.5 194v8q0 120 73.5 195t186.5 75q106 0 176.5 -66t70.5 -198v-35h-383q3 -75 39.5 -115t104.5 -40q106 0 120 80h117q-13 -83 -75.5 -126.5t-164.5 -43.5zM424 316q-10 130 -127 130q-54 0 -89.5 -34.5t-44.5 -95.5h261zM196 613
q-27 0 -46.5 19t-19.5 46q0 26 19.5 45.5t46.5 19.5t46.5 -19.5t19.5 -45.5q0 -27 -19.5 -46t-46.5 -19zM394 613q-28 0 -47 19t-19 46q0 26 19 45.5t47 19.5q27 0 46.5 -19.5t19.5 -45.5q0 -27 -19.5 -46t-46.5 -19z" />
    <glyph glyph-name="uni0452" unicode="&#x452;" horiz-adv-x="608" 
d="M420 318q0 60 -25 87.5t-79 27.5q-53 0 -88 -32.5t-35 -92.5v-308h-121v604h-68v75h68v86h121v-86h169v-75h-169v-164q20 41 63.5 67.5t105.5 26.5q83 0 131 -51t48 -155v-327q0 -97 -43 -143t-149 -48v94q39 3 55 22t16 60v332z" />
    <glyph glyph-name="uni0453" unicode="&#x453;" horiz-adv-x="445" 
d="M193 433v-433h-121v523h349v-90h-228zM257 756h134l-104 -155h-89z" />
    <glyph glyph-name="uni0454" unicode="&#x454;" horiz-adv-x="575" 
d="M542 191q-10 -92 -72.5 -146.5t-168.5 -54.5q-116 0 -190 71.5t-74 194.5v8q0 121 75.5 195.5t188.5 74.5q95 0 161 -47t77 -145h-116q-17 95 -120 95q-55 0 -91.5 -33.5t-46.5 -95.5h220v-83h-221q6 -69 43.5 -105.5t98.5 -36.5q50 0 84 27.5t42 80.5h110z" />
    <glyph glyph-name="uni0455" unicode="&#x455;" horiz-adv-x="494" 
d="M251 -10q-102 0 -158.5 44.5t-60.5 128.5h114q6 -42 29 -63t75 -21q94 0 94 67q0 31 -25.5 46.5t-86.5 25.5q-105 16 -147 51t-42 108q0 74 58.5 115.5t137.5 41.5q188 0 205 -158h-112q-8 37 -30 53.5t-63 16.5q-39 0 -61 -17t-22 -45q0 -29 22.5 -43t85.5 -24
q102 -16 149 -49t47 -111q0 -80 -54 -123.5t-155 -43.5z" />
    <glyph glyph-name="uni0456" unicode="&#x456;" horiz-adv-x="271" 
d="M75 523h121v-523h-121v523zM134 609q-30 0 -51 20t-21 49q0 30 21 50t51 20t51 -20t21 -50q0 -29 -21 -49t-51 -20z" />
    <glyph glyph-name="uni0457" unicode="&#x457;" horiz-adv-x="271" 
d="M39 613q-27 0 -46.5 19t-19.5 46q0 26 19.5 45.5t46.5 19.5t46.5 -19.5t19.5 -45.5q0 -27 -19.5 -46t-46.5 -19zM231 613q-27 0 -46.5 19t-19.5 46q0 26 19.5 45.5t46.5 19.5t46.5 -19.5t19.5 -45.5q0 -27 -19.5 -46t-46.5 -19zM75 523h121v-523h-121v523z" />
    <glyph glyph-name="uni0458" unicode="&#x458;" horiz-adv-x="271" 
d="M3 -95q72 5 72 74v544h121v-541q0 -84 -44.5 -126t-148.5 -44v93zM134 609q-30 0 -51 20t-21 49q0 30 21 50t51 20t51 -20t21 -50q0 -29 -21 -49t-51 -20z" />
    <glyph glyph-name="uni0459" unicode="&#x459;" horiz-adv-x="804" 
d="M369 433h-144q-9 -197 -11 -215q-10 -116 -43.5 -171t-104.5 -55q-24 0 -34 3q-2 1 -5.5 2.5t-4.5 1.5v101l6 -2q10 -2 18 -2q29 0 42.5 34.5t19.5 105.5q11 121 11 287h370v-172h84q92 0 147 -44.5t55 -129.5v-3q0 -85 -54.5 -129.5t-149.5 -44.5h-202v433zM556 88
q49 0 72.5 21t23.5 66v3q0 85 -96 85h-67v-175h67z" />
    <glyph glyph-name="uni045A" unicode="&#x45a;" horiz-adv-x="835" 
d="M587 88q49 0 72.5 21t23.5 66v3q0 85 -96 85h-67v-175h67zM400 222h-207v-222h-121v523h121v-211h207v211h120v-172h84q92 0 147 -44.5t55 -129.5v-3q0 -85 -54.5 -129.5t-149.5 -44.5h-202v222z" />
    <glyph glyph-name="uni045B" unicode="&#x45b;" horiz-adv-x="608" 
d="M4 679h68v86h121v-86h169v-75h-169v-164q20 41 63.5 67.5t105.5 26.5q83 0 131 -50.5t48 -154.5v-329h-121v318q0 60 -25 87.5t-79 27.5t-88.5 -32.5t-34.5 -92.5v-308h-121v604h-68v75z" />
    <glyph glyph-name="uni045C" unicode="&#x45c;" horiz-adv-x="540" 
d="M296 756h134l-104 -155h-89zM193 256v-256h-121v523h121v-232l187 232h132l-203 -242l220 -281h-140z" />
    <glyph glyph-name="uni045D" unicode="&#x45d;" horiz-adv-x="612" 
d="M72 0v523h121v-370l226 370h120v-523h-120v370l-226 -370h-121zM167 756h134l59 -155h-89z" />
    <glyph glyph-name="uni045E" unicode="&#x45e;" horiz-adv-x="553" 
d="M286 607q-63 0 -102 38.5t-43 101.5h92q6 -65 53 -65q26 0 41 18t18 47h89q-4 -63 -44.5 -101.5t-103.5 -38.5zM225 53l-207 470h131l139 -337l128 337h118l-285 -702h-119z" />
    <glyph glyph-name="uni045F" unicode="&#x45f;" horiz-adv-x="593" 
d="M72 0v523h121v-433h207v433h121v-523h-173l-2 -127h-98l-3 127h-173z" />
    <glyph glyph-name="uni0490" unicode="&#x490;" horiz-adv-x="550" 
d="M216 608v-608h-134v715h315l5 134h115v-241h-301z" />
    <glyph glyph-name="uni0491" unicode="&#x491;" horiz-adv-x="435" 
d="M193 433v-433h-121v523h227l5 134h101v-224h-212z" />
    <glyph glyph-name="Wgrave" unicode="&#x1e80;" horiz-adv-x="959" 
d="M26 715h136l124 -525l139 525h110l142 -528l128 528h124l-179 -715h-133l-141 521l-145 -521h-127zM343 901h136l53 -135h-91z" />
    <glyph glyph-name="wgrave" unicode="&#x1e81;" horiz-adv-x="818" 
d="M20 523h129l104 -378l111 378h101l102 -378l109 378h118l-164 -523h-123l-97 352l-106 -352h-124zM272 756h134l59 -155h-89z" />
    <glyph glyph-name="Wacute" unicode="&#x1e82;" horiz-adv-x="959" 
d="M26 715h136l124 -525l139 525h110l142 -528l128 528h124l-179 -715h-133l-141 521l-145 -521h-127zM490 901h136l-99 -135h-91z" />
    <glyph glyph-name="wacute" unicode="&#x1e83;" horiz-adv-x="818" 
d="M20 523h129l104 -378l111 378h101l102 -378l109 378h118l-164 -523h-123l-97 352l-106 -352h-124zM427 756h134l-104 -155h-89z" />
    <glyph glyph-name="Wdieresis" unicode="&#x1e84;" horiz-adv-x="959" 
d="M26 715h136l124 -525l139 525h110l142 -528l128 528h124l-179 -715h-133l-141 521l-145 -521h-127zM374 777q-27 0 -46.5 19t-19.5 46t19.5 46t46.5 19t46.5 -19t19.5 -46t-19.5 -46t-46.5 -19zM585 777q-27 0 -46.5 19t-19.5 46t19.5 46t46.5 19t46.5 -19t19.5 -46
t-19.5 -46t-46.5 -19z" />
    <glyph glyph-name="wdieresis" unicode="&#x1e85;" horiz-adv-x="818" 
d="M20 523h129l104 -378l111 378h101l102 -378l109 378h118l-164 -523h-123l-97 352l-106 -352h-124zM314 613q-27 0 -46.5 19t-19.5 46q0 26 19.5 45.5t46.5 19.5t46.5 -19.5t19.5 -45.5q0 -27 -19.5 -46t-46.5 -19zM512 613q-28 0 -47 19t-19 46q0 26 19 45.5t47 19.5
q27 0 46.5 -19.5t19.5 -45.5q0 -27 -19.5 -46t-46.5 -19z" />
    <glyph glyph-name="Ygrave" unicode="&#x1ef2;" horiz-adv-x="633" 
d="M254 310l-237 405h147l161 -296l157 296h130l-224 -406v-309h-134v310zM187 901h136l53 -135h-91z" />
    <glyph glyph-name="ygrave" unicode="&#x1ef3;" horiz-adv-x="557" 
d="M225 53l-207 470h131l139 -337l128 337h118l-285 -702h-119zM139 756h134l59 -155h-89z" />
    <glyph glyph-name="uni2009" unicode="&#x2009;" horiz-adv-x="105" 
 />
    <glyph glyph-name="endash" unicode="&#x2013;" horiz-adv-x="536" 
d="M45 324h441v-84h-441v84z" />
    <glyph glyph-name="emdash" unicode="&#x2014;" horiz-adv-x="913" 
d="M45 324h819v-84h-819v84z" />
    <glyph glyph-name="quoteleft" unicode="&#x2018;" horiz-adv-x="281" 
d="M36 507l125 220l71 -31l-86 -232z" />
    <glyph glyph-name="quoteright" unicode="&#x2019;" horiz-adv-x="281" 
d="M45 496l86 231l109 -43l-124 -220z" />
    <glyph glyph-name="quotesinglbase" unicode="&#x201a;" horiz-adv-x="280" 
d="M44 -80l85 232l110 -43l-125 -220z" />
    <glyph glyph-name="quotedblleft" unicode="&#x201c;" horiz-adv-x="477" 
d="M36 507l125 220l71 -31l-86 -232zM233 507l125 220l70 -31l-85 -232z" />
    <glyph glyph-name="quotedblright" unicode="&#x201d;" horiz-adv-x="477" 
d="M45 496l86 231l109 -43l-124 -220zM242 496l85 231l110 -43l-125 -220z" />
    <glyph glyph-name="quotedblbase" unicode="&#x201e;" horiz-adv-x="477" 
d="M44 -80l85 232l110 -43l-125 -220zM240 -80l86 232l110 -43l-125 -220z" />
    <glyph glyph-name="dagger" unicode="&#x2020;" horiz-adv-x="390" 
d="M142 501h-112v90h112v124h103v-124h111v-90h-111v-288h-103v288z" />
    <glyph glyph-name="daggerdbl" unicode="&#x2021;" horiz-adv-x="390" 
d="M142 512h-112v85h112v118h103v-118h111v-85h-111v-96h111v-85h-111v-118h-103v118h-112v85h112v96z" />
    <glyph glyph-name="bullet" unicode="&#x2022;" horiz-adv-x="352" 
d="M174 177q-54 0 -91 37t-37 91q0 53 37 90.5t91 37.5q55 0 91.5 -37.5t36.5 -90.5q0 -54 -36 -91t-92 -37z" />
    <glyph glyph-name="ellipsis" unicode="&#x2026;" horiz-adv-x="844" 
d="M144 -7q-33 0 -56 22.5t-23 55.5t23 56t56 23q34 0 57 -23t23 -56t-23 -55.5t-57 -22.5zM420 -7q-34 0 -56.5 22.5t-22.5 55.5t22.5 56t56.5 23t57 -23t23 -56t-23 -55.5t-57 -22.5zM695 -7q-33 0 -56 22.5t-23 55.5t23 56t56 23q34 0 57.5 -23t23.5 -56t-23.5 -55.5
t-57.5 -22.5z" />
    <glyph glyph-name="perthousand" unicode="&#x2030;" horiz-adv-x="1168" 
d="M201 464q34 0 53.5 24t19.5 66q0 41 -19.5 65t-53.5 24t-54 -24t-20 -66t20 -65.5t54 -23.5zM201 384q-72 0 -121.5 48t-49.5 120q0 73 50 121.5t121 48.5t120.5 -47.5t49.5 -119.5q0 -73 -49 -122t-121 -49zM582 715h85l-461 -715h-84zM581 70q34 0 53.5 24t19.5 66
q0 41 -19.5 65t-53.5 24q-33 0 -53 -24t-20 -66t19.5 -65.5t53.5 -23.5zM581 -10q-72 0 -121 48t-49 120q0 73 49.5 121.5t120.5 48.5t120.5 -47.5t49.5 -119.5q0 -73 -49 -122t-121 -49zM963 70q35 0 54.5 24t19.5 66t-19.5 65.5t-54.5 23.5q-33 0 -53 -24t-20 -66
t19.5 -65.5t53.5 -23.5zM963 -10q-72 0 -121 48t-49 120q0 73 49.5 121.5t120.5 48.5t121 -47.5t50 -119.5q0 -73 -49.5 -122t-121.5 -49z" />
    <glyph glyph-name="uni2032" unicode="&#x2032;" horiz-adv-x="231" 
d="M65 715h121l-58 -257h-86z" />
    <glyph glyph-name="uni2033" unicode="&#x2033;" horiz-adv-x="413" 
d="M65 715h121l-58 -257h-86zM247 715h121l-58 -257h-86z" />
    <glyph glyph-name="guilsinglleft" unicode="&#x2039;" horiz-adv-x="320" 
d="M48 261l128 183h97l-123 -183l123 -183h-97z" />
    <glyph glyph-name="guilsinglright" unicode="&#x203a;" horiz-adv-x="320" 
d="M166 261l-123 183h97l128 -183l-128 -183h-97z" />
    <glyph glyph-name="fraction" unicode="&#x2044;" horiz-adv-x="139" 
d="M293 715h77l-528 -715h-77z" />
    <glyph glyph-name="Euro" unicode="&#x20ac;" horiz-adv-x="696" 
d="M28 452h69q15 121 91 197t194 76q114 0 182.5 -60.5t80.5 -174.5h-125q-8 64 -44 98t-94 34q-67 0 -105.5 -44.5t-48.5 -125.5h206l-12 -63h-197v-68h184l-11 -63h-170q20 -163 155 -163q126 0 145 145h124q-14 -120 -84 -185t-187 -65q-119 0 -194 74t-90 194h-69v63h66
v68h-66v63z" />
    <glyph glyph-name="uni20B4" unicode="&#x20b4;" horiz-adv-x="627" 
d="M309 -10q-115 0 -182.5 51t-67.5 143q0 53 19 87h-50v63h107q47 34 148 68h-255v63h383q23 24 23 78q0 81 -108 81q-58 0 -88.5 -24t-39.5 -77h-122q10 99 74 150t176 51q108 0 172 -46.5t64 -131.5q0 -49 -16 -81h53v-63h-104q-48 -37 -139 -68h243v-63h-377
q-33 -32 -33 -86q0 -95 120 -95q132 0 147 125h128q-9 -104 -77 -164.5t-198 -60.5z" />
    <glyph glyph-name="uni20B8" unicode="&#x20b8;" horiz-adv-x="576" 
d="M26 652v63h524v-63h-524zM221 480h-195v105h524v-105h-195v-480h-134v480z" />
    <glyph glyph-name="uni20BD" unicode="&#x20bd;" horiz-adv-x="652" 
d="M355 368q135 0 135 122v4q0 118 -135 118h-97v-244h97zM258 146v-146h-134v146h-98v64h98v67h-98v63h98v375h231q123 0 193.5 -56t70.5 -165v-4q0 -109 -71 -164t-190 -55h-100v-61h228v-64h-228z" />
    <glyph glyph-name="uni2116" unicode="&#x2116;" horiz-adv-x="1124" 
d="M900 332q-85 0 -140 52.5t-55 138.5v6q0 87 55.5 141t140.5 54t140.5 -53t55.5 -139v-5q0 -88 -55.5 -141.5t-141.5 -53.5zM901 414q43 0 66.5 29.5t23.5 82.5v5q0 53 -23.5 82.5t-66.5 29.5q-42 0 -66 -29.5t-24 -82.5v-5q0 -54 23.5 -83t66.5 -29zM82 715h159l265 -511
v511h121v-715h-139l-285 542v-542h-121v715zM718 266h366v-78h-366v78z" />
    <glyph glyph-name="trademark" unicode="&#x2122;" horiz-adv-x="737" 
d="M342 715h97l78 -199l77 199h98v-322h-76v224l-91 -224h-25l-91 224v-224h-67v322zM124 655h-92v60h260v-60h-92v-262h-76v262z" />
    <glyph glyph-name="Omega" unicode="&#x2126;" horiz-adv-x="820" 
d="M185 359q0 -189 170 -297v-62h-306v101h131q-54 34 -93.5 107t-39.5 158v7q0 143 100 247t264 104q165 0 263.5 -102t98.5 -248v-7q0 -93 -38.5 -161t-94.5 -105h131v-101h-306v62q171 98 171 297v8q0 107 -58.5 179.5t-166.5 72.5q-111 0 -168.5 -71t-57.5 -181v-8z" />
    <glyph glyph-name="onethird" unicode="&#x2153;" horiz-adv-x="762" 
d="M107 625l-82 -51v78l94 63h82v-355h-94v265zM578 715h77l-528 -715h-77zM584 -6q-72 0 -108 32t-38 88h83q5 -54 58 -54q54 0 54 47q0 45 -54 45h-28v58h27q52 0 52 43q0 40 -45 40q-48 0 -54 -48h-83q4 52 40.5 83.5t98.5 31.5t96.5 -26.5t34.5 -70.5q0 -57 -61 -77
q32 -6 51 -27.5t19 -54.5q0 -52 -37.5 -81t-105.5 -29z" />
    <glyph glyph-name="twothirds" unicode="&#x2154;" horiz-adv-x="804" 
d="M10 373l128 135q59 61 59 99q0 43 -42 43q-45 0 -52 -61h-85q3 63 40.5 97t100.5 34q62 0 95.5 -30t33.5 -79q0 -61 -70 -126l-58 -57h131v-68h-281v13zM634 715h77l-528 -715h-77zM626 -6q-72 0 -108 32t-38 88h83q5 -54 58 -54q54 0 54 47q0 45 -54 45h-28v58h27
q52 0 52 43q0 40 -45 40q-48 0 -54 -48h-83q4 52 40.5 83.5t98.5 31.5t96.5 -26.5t34.5 -70.5q0 -57 -61 -77q32 -6 51 -27.5t19 -54.5q0 -52 -37.5 -81t-105.5 -29z" />
    <glyph glyph-name="oneeighth" unicode="&#x215b;" horiz-adv-x="755" 
d="M107 625l-82 -51v78l94 63h82v-355h-94v265zM575 715h77l-528 -715h-77zM578 -6q-67 0 -106.5 27t-39.5 78q0 65 65 89q-51 21 -51 73q0 46 38.5 72.5t94.5 26.5q57 0 94 -26t37 -72q0 -52 -52 -73q66 -23 66 -87q0 -51 -40 -79.5t-106 -28.5zM578 59q24 0 39 13.5
t15 37.5q0 23 -15 36t-39 13t-39 -13.5t-15 -36.5t15 -36.5t39 -13.5zM579 212q21 0 33.5 11.5t12.5 31.5t-13 31t-33 11q-21 0 -34 -11.5t-13 -31.5q0 -19 13.5 -30.5t33.5 -11.5z" />
    <glyph glyph-name="threeeighths" unicode="&#x215c;" horiz-adv-x="789" 
d="M168 354q-72 0 -108 32t-38 88h83q5 -54 58 -54q54 0 54 47q0 45 -54 45h-28v58h27q52 0 52 43q0 40 -45 40q-48 0 -54 -48h-83q4 52 40.5 83.5t98.5 31.5t96.5 -26.5t34.5 -70.5q0 -57 -61 -77q32 -6 51 -27.5t19 -54.5q0 -52 -37.5 -81t-105.5 -29zM620 715h77
l-528 -715h-77zM612 -6q-67 0 -106.5 27t-39.5 78q0 65 65 89q-51 21 -51 73q0 46 38.5 72.5t94.5 26.5q57 0 94 -26t37 -72q0 -52 -52 -73q66 -23 66 -87q0 -51 -40 -79.5t-106 -28.5zM612 59q24 0 39 13.5t15 37.5q0 23 -15 36t-39 13t-39 -13.5t-15 -36.5t15 -36.5
t39 -13.5zM613 212q21 0 33.5 11.5t12.5 31.5t-13 31t-33 11q-21 0 -34 -11.5t-13 -31.5q0 -19 13.5 -30.5t33.5 -11.5z" />
    <glyph glyph-name="fiveeighths" unicode="&#x215d;" horiz-adv-x="779" 
d="M162 354q-67 0 -102 31t-37 82h86q3 -22 14.5 -33t36.5 -11q24 0 37 15t13 42q0 26 -13.5 40.5t-37.5 14.5q-39 0 -59 -27h-62l7 207h238v-68h-171l-2 -87q29 37 84 37q50 0 80 -31t30 -85q0 -60 -38 -93.5t-104 -33.5zM610 715h77l-528 -715h-77zM602 -6
q-67 0 -106.5 27t-39.5 78q0 65 65 89q-51 21 -51 73q0 46 38.5 72.5t94.5 26.5q57 0 94 -26t37 -72q0 -52 -52 -73q66 -23 66 -87q0 -51 -40 -79.5t-106 -28.5zM602 59q24 0 39 13.5t15 37.5q0 23 -15 36t-39 13t-39 -13.5t-15 -36.5t15 -36.5t39 -13.5zM603 212
q21 0 33.5 11.5t12.5 31.5t-13 31t-33 11q-21 0 -34 -11.5t-13 -31.5q0 -19 13.5 -30.5t33.5 -11.5z" />
    <glyph glyph-name="seveneighths" unicode="&#x215e;" horiz-adv-x="750" 
d="M175 641h-153v74h270v-10l-129 -345h-94zM563 715h77l-528 -715h-77zM573 -6q-67 0 -106.5 27t-39.5 78q0 65 65 89q-51 21 -51 73q0 46 38.5 72.5t94.5 26.5q57 0 94 -26t37 -72q0 -52 -52 -73q66 -23 66 -87q0 -51 -40 -79.5t-106 -28.5zM573 59q24 0 39 13.5t15 37.5
q0 23 -15 36t-39 13t-39 -13.5t-15 -36.5t15 -36.5t39 -13.5zM574 212q21 0 33.5 11.5t12.5 31.5t-13 31t-33 11q-21 0 -34 -11.5t-13 -31.5q0 -19 13.5 -30.5t33.5 -11.5z" />
    <glyph glyph-name="Delta" unicode="&#x2206;" horiz-adv-x="712" 
d="M33 18l232 697h186l228 -697v-18h-646v18zM184 107h333l-166 515z" />
    <glyph glyph-name="minus" unicode="&#x2212;" horiz-adv-x="544" 
d="M37 389h467v-96h-467v96z" />
    <glyph glyph-name="approxequal" unicode="&#x2248;" horiz-adv-x="534" 
d="M41 148q6 71 39.5 106.5t82.5 35.5q42 0 110.5 -21t90.5 -21q18 0 30.5 11.5t14.5 33.5h79q-4 -69 -37.5 -105.5t-81.5 -36.5q-44 0 -112.5 21.5t-90.5 21.5q-39 0 -46 -46h-79zM41 342q6 71 39.5 106.5t82.5 35.5q42 0 110.5 -21t90.5 -21q18 0 30.5 11.5t14.5 33.5h79
q-4 -69 -37.5 -105.5t-81.5 -36.5q-44 0 -112.5 21.5t-90.5 21.5q-39 0 -46 -46h-79z" />
    <glyph glyph-name="notequal" unicode="&#x2260;" horiz-adv-x="517" 
d="M39 463h227l39 100h91l-39 -100h116v-92h-152l-36 -95h188v-91h-223l-39 -101h-91l39 101h-120v91h155l36 95h-191v92z" />
    <glyph glyph-name="lessequal" unicode="&#x2264;" horiz-adv-x="511" 
d="M49 341v26l398 213v-111l-223 -114l223 -115v-112zM49 89h398v-89h-398v89z" />
    <glyph glyph-name="greaterequal" unicode="&#x2265;" horiz-adv-x="511" 
d="M60 240l223 115l-223 114v111l399 -213v-26l-399 -213v112zM60 89h399v-89h-399v89z" />
    <glyph glyph-name="uni24C5" unicode="&#x24c5;" horiz-adv-x="847" 
d="M294 559h140q75 0 115 -32.5t40 -95.5v-3q0 -62 -39.5 -93.5t-110.5 -31.5h-49v-143h-96v399zM432 369q66 0 66 59v3q0 55 -66 55h-42v-117h42zM421 32q132 0 226.5 92.5t94.5 234.5q0 141 -92.5 232.5t-226.5 91.5q-136 0 -228.5 -92t-92.5 -234q0 -143 94 -234t225 -91
zM421 -13q-157 0 -265 106.5t-108 263.5q0 156 108.5 263.5t266.5 107.5t265.5 -107t107.5 -262q0 -158 -109 -265t-266 -107z" />
    <glyph glyph-name="zero.tab" unicode="&#xe44f;" 
d="M304 95q67 0 95.5 45t28.5 149v140q0 99 -30 145.5t-96 46.5q-67 0 -98.5 -47.5t-31.5 -149.5v-136q0 -103 32.5 -148t99.5 -45zM301 -10q-120 0 -188.5 76.5t-68.5 220.5v136q0 146 69 223.5t188 77.5t187 -75t68 -219v-140q0 -146 -66.5 -223t-188.5 -77z" />
    <glyph glyph-name="one.tab" unicode="&#xe450;" 
d="M290 582l-192 -145v116l199 162h126v-715h-133v582z" />
    <glyph glyph-name="two.tab" unicode="&#xe451;" 
d="M35 24l259 285q54 61 80.5 109.5t26.5 97.5q0 50 -26.5 78t-75.5 28q-53 0 -82.5 -33.5t-37.5 -109.5h-123q6 115 69 180t177 65q110 0 171 -55t61 -150q0 -65 -37 -127.5t-107 -134.5l-153 -152h299v-105h-501v24z" />
    <glyph glyph-name="three.tab" unicode="&#xe452;" 
d="M294 -10q-121 0 -188 62t-71 169h119q9 -130 137 -130q130 0 130 115q0 117 -125 117h-55v95h52q117 0 117 104q0 46 -27 73.5t-79 27.5q-56 0 -90 -31.5t-39 -86.5h-115q4 96 70.5 157.5t174.5 61.5q106 0 167 -54t61 -137q0 -114 -115 -156q63 -16 99 -59.5t36 -112.5
q0 -100 -70 -157.5t-189 -57.5z" />
    <glyph glyph-name="four.tab" unicode="&#xe453;" 
d="M362 145h-330v44l293 526h160v-474h79v-96h-79v-145h-123v145zM364 241v370l-202 -370h202z" />
    <glyph glyph-name="five.tab" unicode="&#xe454;" 
d="M290 -10q-118 0 -179.5 57t-67.5 159h119q9 -56 36.5 -84t90.5 -28q60 0 93 38.5t33 107.5q0 63 -34 101t-93 38q-94 0 -144 -63h-66l5 399h422v-105h-322l-2 -195q53 60 149 60q97 0 156 -64t59 -171q0 -115 -70 -182.5t-185 -67.5z" />
    <glyph glyph-name="six.tab" unicode="&#xe455;" 
d="M310 -10q-72 0 -124.5 24t-83 68.5t-45 102t-14.5 129.5v36q0 179 78 276.5t208 97.5q95 0 152.5 -46.5t68.5 -141.5h-118q-10 44 -34 66t-73 22q-72 0 -113.5 -63.5t-43.5 -187.5q54 91 170 91q100 0 162 -63t62 -167q0 -111 -68 -177.5t-184 -66.5zM308 90
q59 0 95 38.5t36 101.5q0 65 -36 103t-96 38t-97.5 -36.5t-37.5 -96.5q0 -70 37 -109t99 -39z" />
    <glyph glyph-name="seven.tab" unicode="&#xe456;" 
d="M385 609h-327v106h494v-16l-273 -699h-135z" />
    <glyph glyph-name="eight.tab" unicode="&#xe457;" 
d="M301 -10q-109 0 -183.5 56t-74.5 157q0 66 35 112t94 69q-102 43 -102 148q0 88 68.5 140t162.5 52q96 0 163 -52t67 -138q0 -103 -103 -149q130 -50 130 -179q0 -102 -73.5 -159t-183.5 -57zM301 92q58 0 94.5 32t36.5 90t-36.5 89.5t-92.5 31.5q-57 0 -95 -32t-38 -90
q0 -57 38 -89t93 -32zM304 423q49 0 78.5 28t29.5 75q0 45 -31.5 73.5t-79.5 28.5q-47 0 -78.5 -27.5t-31.5 -74.5t32 -75t81 -28z" />
    <glyph glyph-name="nine.tab" unicode="&#xe458;" 
d="M281 -9q-106 0 -166.5 50t-71.5 146h118q9 -47 37 -71.5t83 -24.5q149 0 153 250q-24 -41 -68.5 -65.5t-102.5 -24.5q-99 0 -162 63t-63 167q0 111 68 177.5t184 66.5q133 0 200 -81.5t67 -238.5v-56q0 -173 -71.5 -265.5t-204.5 -92.5zM293 345q61 0 98 35.5t37 94.5
q0 71 -37.5 111t-98.5 40q-59 0 -95 -38t-36 -102q0 -65 36 -103t96 -38z" />
    <glyph glyph-name="cent.tab" unicode="&#xe459;" 
d="M282 -8q-104 10 -168.5 80t-64.5 184v8q0 112 65.5 184t167.5 84v97h66v-97q85 -6 142.5 -55t66.5 -139h-115q-13 85 -94 100v-356q42 9 70 37.5t33 75.5h109q-6 -84 -63.5 -139.5t-148.5 -63.5v-127h-66v127zM171 256q0 -148 111 -172v353q-51 -12 -81 -57t-30 -116v-8z
" />
    <glyph glyph-name="dollar.tab" unicode="&#xe45a;" 
d="M269 -9q-225 15 -244 230h120q7 -58 33 -91.5t91 -41.5v226q-112 19 -166.5 67t-54.5 140q0 82 61 138t160 64v90h66v-91q97 -8 152 -59.5t64 -143.5h-115q-17 92 -101 107v-206q116 -19 172.5 -66.5t56.5 -143.5q0 -89 -61 -150t-168 -69v-126h-66v126zM444 199
q0 44 -23.5 67t-85.5 37v-215q51 8 80 37t29 74zM164 531q0 -42 22 -64t83 -36v197q-51 -6 -78 -32t-27 -65z" />
    <glyph glyph-name="Euro.tab" unicode="&#xe45b;" 
d="M14 453h56q6 127 74 199.5t179 72.5q100 0 159 -57t68 -169h-115q-8 64 -35 95t-77 31q-122 0 -131 -172h191l-12 -64h-179v-67h167l-12 -63h-155q5 -87 36.5 -127t96.5 -40q54 0 83 32.5t38 104.5h113q-9 -118 -70.5 -178.5t-166.5 -60.5q-113 0 -179 69.5t-73 199.5
h-56v63h56v67h-56v64z" />
    <glyph glyph-name="a.alt" unicode="&#xe4c0;" horiz-adv-x="627" 
d="M264 -10q-97 0 -161.5 70t-64.5 193v8q0 123 67 198t164 75q107 0 161 -90v79h121v-523h-121v86q-23 -40 -68.5 -68t-97.5 -28zM293 86q62 0 101.5 44.5t39.5 128.5v8q0 85 -36 128.5t-99 43.5q-64 0 -100.5 -45.5t-36.5 -129.5v-8q0 -83 36.5 -126.5t94.5 -43.5z" />
    <glyph glyph-name="t.alt" unicode="&#xe4d3;" horiz-adv-x="358" 
d="M100 432h-78v91h78v115h121v-115h107v-91h-107v-432h-121v432z" />
    <glyph glyph-name="f_i" unicode="&#xfb01;" horiz-adv-x="632" 
d="M93 432h-71v91h71v70q0 87 45 132t129 45q42 0 66 -9v-94q-21 8 -51 8q-68 0 -68 -77v-75h119v-91h-119v-432h-121v432zM431 523h121v-523h-121v523zM490 609q-30 0 -51 20t-21 49q0 30 21 50t51 20t51 -20t21 -50q0 -29 -21 -49t-51 -20z" />
    <glyph glyph-name="f_l" unicode="&#xfb02;" horiz-adv-x="632" 
d="M93 432h-71v91h71v70q0 87 45 132t129 45q42 0 66 -9v-94q-21 8 -51 8q-68 0 -68 -77v-75h119v-91h-119v-432h-121v432zM431 765h121v-765h-121v765z" />
    <glyph glyph-name="three.sub" horiz-adv-x="340" 
d="M166 -105q-72 0 -108 32t-38 88h83q5 -54 58 -54q54 0 54 47q0 45 -54 45h-28v58h27q52 0 52 43q0 40 -45 40q-48 0 -54 -48h-83q4 52 40.5 83.5t98.5 31.5t96.5 -26.5t34.5 -70.5q0 -57 -61 -77q32 -6 51 -27.5t19 -54.5q0 -52 -37.5 -81t-105.5 -29z" />
    <glyph glyph-name="two.den" horiz-adv-x="317" 
d="M7 13l128 135q59 61 59 99q0 43 -42 43q-45 0 -52 -61h-85q3 63 40.5 97t100.5 34q62 0 95.5 -30t33.5 -79q0 -61 -70 -126l-58 -57h131v-68h-281v13z" />
    <glyph glyph-name="dotaccent.uc" horiz-adv-x="404" 
d="M200 775q-30 0 -50.5 20t-20.5 49t20.5 48.5t50.5 19.5t50.5 -19.5t20.5 -48.5t-21 -49t-50 -20z" />
    <glyph glyph-name="two.oldtab" horiz-adv-x="600" 
d="M42 23l241 227q61 57 88 97t27 86t-26.5 72t-76.5 26q-104 0 -121 -134h-114q8 107 71 169.5t169 62.5q104 0 165 -52.5t61 -137.5q0 -60 -37.5 -112t-114.5 -122l-116 -108h274v-97h-490v23z" />
    <glyph glyph-name="uni044C.bgr" horiz-adv-x="511" 
d="M271 -9q-204 1 -204 203v329h121v-178q30 6 80 6q213 -2 213 -172v-4q0 -87 -59.5 -135.5t-150.5 -48.5zM271 75q43 0 65.5 25.5t22.5 68.5v4q0 92 -100 92q-49 0 -71 -5v-81q0 -104 83 -104z" />
    <glyph glyph-name="breve.uc" horiz-adv-x="404" 
d="M199 761q-63 0 -102.5 38.5t-42.5 101.5h85q8 -56 60 -56t63 56h84q-4 -62 -45 -101t-102 -39z" />
    <glyph glyph-name="uni0439.bgr" horiz-adv-x="605" 
d="M298 607q-63 0 -102 38.5t-43 101.5h91q6 -65 54 -65q26 0 41 18t18 47h89q-4 -63 -44.5 -101.5t-103.5 -38.5zM247 -10q-82 0 -131 49t-49 149v335h121v-321q0 -60 25 -87.5t77 -27.5q53 0 88 32.5t35 92.5v311h121v-523h-121v82q-49 -92 -166 -92z" />
    <glyph glyph-name="caron.uc" horiz-adv-x="404" 
d="M38 901h88l75 -55l74 55h86l-110 -135h-105z" />
    <glyph glyph-name="circumflex.uc" horiz-adv-x="404" 
d="M149 901h104l108 -135h-88l-74 55l-75 -55h-86z" />
    <glyph glyph-name="uni0414.bgr" horiz-adv-x="702" 
d="M187 107h313l-157 480zM117 -130h-115v237h60l208 608h161l208 -608h61v-237h-115l-5 130h-458z" />
    <glyph glyph-name="uni0416.bgr" horiz-adv-x="937" 
d="M402 337l-242 -337h-145l273 369l-263 346h141l236 -326v326h131v-326l237 326h138l-261 -340l276 -375h-150l-240 336v-336h-131v337z" />
    <glyph glyph-name="four.oldtab" horiz-adv-x="600" 
d="M358 51h-330v41l290 526h161v-477h86v-90h-86v-146h-121v146zM359 141v377l-205 -377h205z" />
    <glyph glyph-name="one.oldtab" horiz-adv-x="600" 
d="M297 493l-193 -135v112l206 149h113v-619h-126v493z" />
    <glyph glyph-name="acute.uc" horiz-adv-x="404" 
d="M200 901h136l-99 -135h-91z" />
    <glyph glyph-name="uni041A.bgr" horiz-adv-x="659" 
d="M216 334v-334h-134v715h134v-322l273 322h143l-296 -341l311 -374h-157z" />
    <glyph glyph-name="uni0436.bgr" horiz-adv-x="747" 
d="M314 259l-170 -259h-131l191 280l-176 243h126l160 -237v479h118v-479l160 237h126l-176 -241l192 -282h-133l-169 259v-259h-118v259z" />
    <glyph glyph-name="macron.uc" horiz-adv-x="404" 
d="M56 861h288v-81h-288v81z" />
    <glyph glyph-name="dieresis.uc" horiz-adv-x="404" 
d="M94 777q-27 0 -46.5 19t-19.5 46t19.5 46t46.5 19t46.5 -19t19.5 -46t-19.5 -46t-46.5 -19zM305 777q-27 0 -46.5 19t-19.5 46t19.5 46t46.5 19t46.5 -19t19.5 -46t-19.5 -46t-46.5 -19z" />
    <glyph glyph-name="six.oldtab" horiz-adv-x="600" 
d="M312 -10q-131 0 -195 84t-64 229v60q0 171 74 266.5t200 95.5q92 0 150 -47t69 -139h-115q-19 88 -108 88q-144 0 -148 -262q55 90 165 90q98 0 157.5 -61t59.5 -164q0 -109 -66.5 -174.5t-178.5 -65.5zM312 86q56 0 91.5 38t35.5 100q0 65 -35 103.5t-93 38.5
q-57 0 -94.5 -37t-37.5 -96q0 -69 37 -108t96 -39z" />
    <glyph glyph-name="uni0432.bgr" horiz-adv-x="529" 
d="M49 506q0 133 56 200.5t162 67.5q98 0 152 -50.5t54 -140.5v-6q0 -60 -34.5 -108.5t-89.5 -57.5q145 -25 145 -184v-5q0 -100 -63 -167t-160 -67q-109 0 -165.5 65.5t-56.5 189.5v263zM173 450h68q57 0 83.5 34t26.5 89v5q0 104 -84 104q-94 0 -94 -160v-72zM269 80
q51 0 77 37t26 107v6q0 70 -31 102.5t-99 32.5h-69v-133q0 -74 22 -113t74 -39z" />
    <glyph glyph-name="grave.uc" horiz-adv-x="404" 
d="M65 901h136l53 -135h-91z" />
    <glyph glyph-name="at.uc" horiz-adv-x="921" 
d="M460 -67q-190 0 -301.5 115.5t-111.5 283.5q0 182 125.5 302t300.5 120q174 0 285.5 -100.5t111.5 -256.5q0 -67 -17.5 -118.5t-47 -80.5t-62.5 -43t-69 -14q-58 0 -86.5 20.5t-37.5 61.5q-21 -39 -58 -63t-82 -24q-72 0 -115 46.5t-43 127.5q0 99 55.5 163.5t136.5 64.5
q85 0 114 -63l7 55h108l-31 -254q-9 -72 44 -72q46 0 77 48t31 145q0 130 -86 209.5t-234 79.5q-151 0 -248.5 -97.5t-97.5 -256.5q0 -142 87 -236.5t246 -94.5q149 0 237 80h83q-43 -68 -128.5 -108t-192.5 -40zM439 219q43 0 75 38.5t32 103.5q0 93 -87 93
q-42 0 -69.5 -38t-27.5 -102q0 -44 21 -69.5t56 -25.5z" />
    <glyph glyph-name="bar.uc" horiz-adv-x="263" 
d="M84 777h90v-861h-90v861z" />
    <glyph glyph-name="backslash.uc" horiz-adv-x="419" 
d="M18 777h102l281 -861h-102z" />
    <glyph glyph-name="uni0424.bgr" horiz-adv-x="876" 
d="M505 666q148 -4 236.5 -79t88.5 -222v-8q0 -144 -91 -220t-234 -78v-69h-133v69q-147 2 -236 77t-89 219v6q0 149 90 225t235 80v63h133v-63zM505 156q191 5 191 201v8q0 196 -191 205v-414zM372 569q-192 -9 -192 -208v-7q0 -194 192 -199v414z" />
    <glyph glyph-name="yen.oldtab" horiz-adv-x="600" 
d="M87 344h145l-187 350h134l132 -271l126 271h118l-177 -350h148v-61h-158v-66h158v-61h-158v-156h-126v156h-155v61h155v66h-155v61z" />
    <glyph glyph-name="slash.uc" horiz-adv-x="419" 
d="M295 777h103l-283 -861h-102z" />
    <glyph glyph-name="braceright.uc" horiz-adv-x="400" 
d="M42 0q69 2 91.5 25t14.5 90l-12 98q-7 53 20 87t80 46q-113 28 -100 133l12 98q8 66 -14.5 89t-91.5 25v90q130 0 185.5 -47.5t38.5 -157.5l-13 -84q-7 -46 17 -74.5t89 -28.5v-87q-65 0 -89 -28.5t-17 -74.5l13 -84q15 -109 -40 -157t-184 -48v90z" />
    <glyph glyph-name="braceleft.uc" horiz-adv-x="400" 
d="M354 -90q-129 0 -185 48t-39 157l12 84q7 46 -17 74.5t-89 28.5v87q65 0 89 28.5t17 74.5l-12 84q-17 110 38.5 157.5t185.5 47.5v-90q-68 -2 -92 -25.5t-15 -88.5l12 -98q13 -106 -100 -133q113 -26 100 -133l-12 -98q-9 -66 15 -89.5t92 -25.5v-90z" />
    <glyph glyph-name="Euro.oldtab" horiz-adv-x="600" 
d="M31 439h54q7 125 71.5 194.5t173.5 69.5q98 0 154.5 -55t66.5 -164h-112q-8 62 -34 92t-75 30q-119 0 -127 -167h186l-11 -61h-175v-66h162l-11 -61h-151q5 -84 35.5 -123t93.5 -39q53 0 81 32t37 101h109q-8 -113 -68 -172.5t-161 -59.5q-110 0 -174 67.5t-71 193.5h-54
v61h54v66h-54v61z" />
    <glyph glyph-name="uni0442.bgr" horiz-adv-x="918" 
d="M72 523h121v-80q20 40 61.5 65.5t97.5 25.5q109 0 148 -94q29 46 77 70t100 24q77 0 125.5 -50.5t48.5 -152.5v-331h-121v323q0 110 -93 110q-49 0 -82.5 -31.5t-33.5 -88.5v-313h-120v323q0 110 -93 110q-48 0 -81.5 -31.5t-33.5 -88.5v-313h-121v523z" />
    <glyph glyph-name="bracketright.uc" horiz-adv-x="381" 
d="M42 4h134v685h-134v91h256v-868h-256v92z" />
    <glyph glyph-name="bracketleft.uc" horiz-adv-x="381" 
d="M79 780h256v-91h-134v-685h134v-92h-256v868z" />
    <glyph glyph-name="parenright.uc" horiz-adv-x="339" 
d="M17 -98q148 207 148 441t-148 441h104q71 -83 117.5 -196t46.5 -245t-47 -245.5t-117 -195.5h-104z" />
    <glyph glyph-name="parenleft.uc" horiz-adv-x="339" 
d="M214 -98q-71 83 -117.5 196t-46.5 245t47 245.5t117 195.5h105q-65 -87 -107 -200.5t-42 -240.5q0 -240 149 -441h-105z" />
    <glyph glyph-name="guillemotright.uc" horiz-adv-x="496" 
d="M166 301l-123 191h95l128 -191l-128 -191h-95zM344 301l-123 191h95l128 -191l-128 -191h-95z" />
    <glyph glyph-name="guillemotleft.uc" horiz-adv-x="496" 
d="M48 301l128 191h95l-123 -191l123 -191h-95zM227 301l128 191h95l-123 -191l123 -191h-95z" />
    <glyph glyph-name="guilsinglright.uc" horiz-adv-x="320" 
d="M166 301l-123 191h97l128 -191l-128 -191h-97z" />
    <glyph glyph-name="guilsinglleft.uc" horiz-adv-x="320" 
d="M48 301l128 191h97l-123 -191l123 -191h-97z" />
    <glyph glyph-name="emdash.uc" horiz-adv-x="913" 
d="M45 369h819v-84h-819v84z" />
    <glyph glyph-name="endash.uc" horiz-adv-x="536" 
d="M45 369h441v-84h-441v84z" />
    <glyph glyph-name="hyphen.uc" horiz-adv-x="384" 
d="M56 378h268v-103h-268v103z" />
    <glyph glyph-name="exclamdown.uc" horiz-adv-x="310" 
d="M153 721q33 0 56.5 -22t23.5 -54q0 -33 -23.5 -55.5t-56.5 -22.5q-34 0 -57.5 22.5t-23.5 55.5q0 32 23.5 54t57.5 22zM219 0h-135l19 500h98z" />
    <glyph glyph-name="questiondown.uc" horiz-adv-x="520" 
d="M341 462q0 -35 -15.5 -68t-31 -50.5t-46.5 -48.5l-8 -8q-24 -24 -36 -37t-23 -34.5t-11 -41.5q0 -40 22 -62t67 -22q47 0 77 30.5t35 82.5h116q-6 -98 -69.5 -155.5t-164.5 -57.5q-103 0 -156.5 49t-53.5 126q0 48 23 85t65 76q2 2 15.5 14.5t16 15.5t14 14t14.5 15.5
t11 14.5t11 16.5t7.5 16t6.5 18t2 17.5v32h112v-38zM286 721q34 0 58 -22t24 -54q0 -33 -24 -55.5t-58 -22.5q-33 0 -56.5 22.5t-23.5 55.5q0 32 23.5 54t56.5 22z" />
    <glyph glyph-name="caron.alt" horiz-adv-x="404" 
d="M180 765h110l-49 -175h-71z" />
    <glyph glyph-name="registered.alt" horiz-adv-x="847" 
d="M277 560h146q155 0 155 -122v-2q0 -79 -80 -106l103 -169h-99l-92 152h-39v-152h-94v399zM419 377q65 0 65 55v3q0 52 -64 52h-49v-110h48zM421 32q132 0 226.5 92.5t94.5 234.5q0 141 -92.5 232.5t-226.5 91.5q-136 0 -228.5 -92t-92.5 -234q0 -143 94 -234t225 -91z
M421 -13q-157 0 -265 106.5t-108 263.5q0 156 108.5 263.5t266.5 107.5t265.5 -107t107.5 -262q0 -158 -109 -265t-266 -107z" />
    <glyph glyph-name="space_uni0326.alt" horiz-adv-x="404" 
d="M137 610l92 169l70 -26l-51 -165z" />
    <glyph glyph-name="tcommaaccent.alt" horiz-adv-x="358" 
d="M63 -198l52 165l111 -22l-92 -170zM100 432h-78v91h78v115h121v-115h107v-91h-107v-432h-121v432z" />
    <glyph glyph-name="tcaron.alt" horiz-adv-x="358" 
d="M100 432h-78v91h78v115h121v-115h107v-91h-107v-432h-121v432zM286 765h110l-49 -175h-71z" />
    <glyph glyph-name="germandbls.alt" horiz-adv-x="649" 
d="M431 -9q-84 0 -133.5 42t-51.5 115h109q5 -69 72 -69q68 0 68 70q0 10 -2 18.5t-8 16t-10.5 12.5t-15 12.5t-16.5 11t-20.5 11.5t-20.5 12q-28 16 -44.5 26.5t-37 28t-30 39.5t-9.5 48q0 32 20.5 63.5t45.5 52.5t45.5 48t20.5 51q0 77 -96 77q-59 0 -91.5 -34t-32.5 -100
v-543h-121v540q0 105 69 168t177 63q95 0 154 -42.5t59 -116.5q0 -40 -21.5 -74t-46.5 -53.5t-46.5 -42t-21.5 -42.5q0 -5 1.5 -9.5t6.5 -9.5t9.5 -8.5t14.5 -10t18 -11t24 -14t28 -16.5q117 -69 117 -163q0 -79 -50.5 -123t-132.5 -44z" />
    <glyph glyph-name="atilde.alt" horiz-adv-x="627" 
d="M264 -10q-97 0 -161.5 70t-64.5 193v8q0 123 67 198t164 75q107 0 161 -90v79h121v-523h-121v86q-23 -40 -68.5 -68t-97.5 -28zM293 86q62 0 101.5 44.5t39.5 128.5v8q0 85 -36 128.5t-99 43.5q-64 0 -100.5 -45.5t-36.5 -129.5v-8q0 -83 36.5 -126.5t94.5 -43.5z
M365 606q-26 0 -62.5 20t-48.5 20q-14 0 -24 -11t-13 -29h-75q6 62 35 96.5t72 34.5q25 0 61.5 -19.5t50.5 -19.5q29 0 36 40h75q-6 -62 -35 -97t-72 -35z" />
    <glyph glyph-name="aringacute.alt" horiz-adv-x="627" 
d="M264 -10q-97 0 -161.5 70t-64.5 193v8q0 123 67 198t164 75q107 0 161 -90v79h121v-523h-121v86q-23 -40 -68.5 -68t-97.5 -28zM293 86q62 0 101.5 44.5t39.5 128.5v8q0 85 -36 128.5t-99 43.5q-64 0 -100.5 -45.5t-36.5 -129.5v-8q0 -83 36.5 -126.5t94.5 -43.5z
M304 629q22 0 36 16t14 39q0 24 -14 39.5t-36 15.5t-36 -15.5t-14 -39.5q0 -23 14 -39t36 -16zM304 576q-45 0 -78 32t-33 76t33 76t78 32t78 -32t33 -76t-33 -76t-78 -32zM318 963h136l-99 -135h-91z" />
    <glyph glyph-name="uni20B4.old" horiz-adv-x="610" 
d="M301 -10q-112 0 -177.5 49.5t-65.5 139.5q0 48 18 83h-48v62h103q44 32 147 66h-250v61h373q21 26 21 75q0 79 -105 79q-56 0 -85.5 -23t-38.5 -74h-118q9 96 71 145t171 49q104 0 166.5 -45t62.5 -127q0 -48 -16 -79h52v-61h-101q-42 -35 -134 -66h235v-62h-367
q-31 -30 -31 -83q0 -46 31.5 -69t85.5 -23q129 0 143 121h123q-6 -100 -72.5 -159t-193.5 -59z" />
    <glyph glyph-name="aring.alt" horiz-adv-x="627" 
d="M264 -10q-97 0 -161.5 70t-64.5 193v8q0 123 67 198t164 75q107 0 161 -90v79h121v-523h-121v86q-23 -40 -68.5 -68t-97.5 -28zM293 86q62 0 101.5 44.5t39.5 128.5v8q0 85 -36 128.5t-99 43.5q-64 0 -100.5 -45.5t-36.5 -129.5v-8q0 -83 36.5 -126.5t94.5 -43.5z
M304 643q22 0 36 16t14 39q0 24 -14 39.5t-36 15.5t-36 -15.5t-14 -39.5q0 -23 14 -39t36 -16zM304 590q-45 0 -78 32t-33 76t33 76t78 32t78 -32t33 -76t-33 -76t-78 -32z" />
    <glyph glyph-name="aogonek.alt" horiz-adv-x="627" 
d="M486 -182q-51 0 -80 21.5t-29 59.5q0 61 81 101h-28v86q-23 -40 -68.5 -68t-97.5 -28q-97 0 -161.5 70t-64.5 193v8q0 123 67 198t164 75q107 0 161 -90v79h121v-515q-69 -45 -69 -85q0 -33 35 -33q25 0 43 9v-67q-30 -14 -74 -14zM293 86q62 0 101.5 44.5t39.5 128.5v8
q0 85 -36 128.5t-99 43.5q-64 0 -100.5 -45.5t-36.5 -129.5v-8q0 -83 36.5 -126.5t94.5 -43.5z" />
    <glyph glyph-name="amacron.alt" horiz-adv-x="627" 
d="M264 -10q-97 0 -161.5 70t-64.5 193v8q0 123 67 198t164 75q107 0 161 -90v79h121v-523h-121v86q-23 -40 -68.5 -68t-97.5 -28zM293 86q62 0 101.5 44.5t39.5 128.5v8q0 85 -36 128.5t-99 43.5q-64 0 -100.5 -45.5t-36.5 -129.5v-8q0 -83 36.5 -126.5t94.5 -43.5z
M168 712h280v-78h-280v78z" />
    <glyph glyph-name="agrave.alt" horiz-adv-x="627" 
d="M264 -10q-97 0 -161.5 70t-64.5 193v8q0 123 67 198t164 75q107 0 161 -90v79h121v-523h-121v86q-23 -40 -68.5 -68t-97.5 -28zM293 86q62 0 101.5 44.5t39.5 128.5v8q0 85 -36 128.5t-99 43.5q-64 0 -100.5 -45.5t-36.5 -129.5v-8q0 -83 36.5 -126.5t94.5 -43.5z
M166 756h134l59 -155h-89z" />
    <glyph glyph-name="adieresis.alt" horiz-adv-x="627" 
d="M264 -10q-97 0 -161.5 70t-64.5 193v8q0 123 67 198t164 75q107 0 161 -90v79h121v-523h-121v86q-23 -40 -68.5 -68t-97.5 -28zM293 86q62 0 101.5 44.5t39.5 128.5v8q0 85 -36 128.5t-99 43.5q-64 0 -100.5 -45.5t-36.5 -129.5v-8q0 -83 36.5 -126.5t94.5 -43.5z
M211 613q-27 0 -46.5 19t-19.5 46q0 26 19.5 45.5t46.5 19.5t46.5 -19.5t19.5 -45.5q0 -27 -19.5 -46t-46.5 -19zM409 613q-28 0 -47 19t-19 46q0 26 19.5 45.5t46.5 19.5t46.5 -19.5t19.5 -45.5q0 -27 -19.5 -46t-46.5 -19z" />
    <glyph glyph-name="acircumflex.alt" horiz-adv-x="627" 
d="M264 -10q-97 0 -161.5 70t-64.5 193v8q0 123 67 198t164 75q107 0 161 -90v79h121v-523h-121v86q-23 -40 -68.5 -68t-97.5 -28zM293 86q62 0 101.5 44.5t39.5 128.5v8q0 85 -36 128.5t-99 43.5q-64 0 -100.5 -45.5t-36.5 -129.5v-8q0 -83 36.5 -126.5t94.5 -43.5z
M261 753h96l111 -151h-86l-75 68l-76 -68h-84z" />
    <glyph glyph-name="abreve.alt" horiz-adv-x="627" 
d="M264 -10q-97 0 -161.5 70t-64.5 193v8q0 123 67 198t164 75q107 0 161 -90v79h121v-523h-121v86q-23 -40 -68.5 -68t-97.5 -28zM293 86q62 0 101.5 44.5t39.5 128.5v8q0 85 -36 128.5t-99 43.5q-64 0 -100.5 -45.5t-36.5 -129.5v-8q0 -83 36.5 -126.5t94.5 -43.5z
M307 606q-62 0 -101.5 39t-43.5 104h84q8 -58 61 -58q54 0 65 58h82q-4 -64 -45 -103.5t-102 -39.5z" />
    <glyph glyph-name="aacute.alt" horiz-adv-x="627" 
d="M264 -10q-97 0 -161.5 70t-64.5 193v8q0 123 67 198t164 75q107 0 161 -90v79h121v-523h-121v86q-23 -40 -68.5 -68t-97.5 -28zM293 86q62 0 101.5 44.5t39.5 128.5v8q0 85 -36 128.5t-99 43.5q-64 0 -100.5 -45.5t-36.5 -129.5v-8q0 -83 36.5 -126.5t94.5 -43.5z
M316 756h134l-104 -155h-89z" />
    <glyph glyph-name="ring.uc" horiz-adv-x="404" 
d="M200 807q22 0 36 15.5t14 39.5t-14 39.5t-36 15.5q-23 0 -36.5 -15.5t-13.5 -39.5t13.5 -39.5t36.5 -15.5zM200 753q-46 0 -79 32t-33 77t33 77t79 32t79 -32t33 -77t-33 -77t-79 -32z" />
    <glyph glyph-name="uni043F.locl" horiz-adv-x="593" 
d="M400 433h-207v-433h-121v523h449v-523h-121v433z" />
    <glyph glyph-name="minus.sup" horiz-adv-x="350" 
d="M39 631h269v-69h-269v69z" />
    <glyph glyph-name="uni041B.bgr" horiz-adv-x="695" 
d="M341 587l-189 -587h-125l241 715h161l240 -715h-139z" />
    <glyph glyph-name="plus.sup" horiz-adv-x="350" 
d="M138 562h-99v69h99v103h70v-103h100v-69h-100v-102h-70v102z" />
    <glyph glyph-name="nine.sup" horiz-adv-x="353" 
d="M165 412q-60 0 -95 27t-41 77h86q9 -36 49 -36q63 0 65 102q-27 -41 -83 -41q-54 0 -87.5 29.5t-33.5 83.5q0 57 38.5 90.5t104.5 33.5q76 0 115 -45.5t39 -125.5v-14q0 -88 -40 -134.5t-117 -46.5zM168 599q24 0 39.5 15.5t15.5 38.5q0 28 -15 44.5t-40 16.5
q-24 0 -38.5 -16t-14.5 -42t14 -41.5t39 -15.5z" />
    <glyph glyph-name="eight.sup" horiz-adv-x="344" 
d="M170 412q-67 0 -106.5 27t-39.5 78q0 65 65 89q-51 21 -51 73q0 46 38.5 72.5t94.5 26.5q57 0 94 -26t37 -72q0 -52 -52 -73q66 -23 66 -87q0 -51 -40 -79.5t-106 -28.5zM170 477q24 0 39 13.5t15 37.5q0 23 -15 36t-39 13t-39 -13.5t-15 -36.5t15 -36.5t39 -13.5z
M171 630q21 0 33.5 11.5t12.5 31.5t-13 31t-33 11q-21 0 -34 -11.5t-13 -31.5q0 -19 13.5 -30.5t33.5 -11.5z" />
    <glyph glyph-name="seven.sup" horiz-adv-x="302" 
d="M171 699h-153v74h270v-10l-129 -345h-94z" />
    <glyph glyph-name="six.sup" horiz-adv-x="353" 
d="M181 412q-154 0 -154 172v9q0 88 44 136.5t117 48.5q118 0 128 -102h-85q-7 34 -43 34q-63 0 -68 -104q28 43 86 43q52 0 85 -30t33 -83q0 -57 -38.5 -90.5t-104.5 -33.5zM180 476q24 0 39 16t15 42t-14.5 41.5t-39.5 15.5t-40 -15.5t-15 -39.5q0 -28 15 -44t40 -16z" />
    <glyph glyph-name="five.sup" horiz-adv-x="332" 
d="M159 412q-67 0 -102 31t-37 82h86q3 -22 14.5 -33t36.5 -11q24 0 37 15t13 42q0 26 -13.5 40.5t-37.5 14.5q-39 0 -59 -27h-62l7 207h238v-68h-171l-2 -87q29 37 84 37q50 0 80 -31t30 -85q0 -60 -38 -93.5t-104 -33.5z" />
    <glyph glyph-name="four.sup" horiz-adv-x="352" 
d="M193 487h-178v34l154 252h113v-222h46v-64h-46v-69h-89v69zM195 551v157l-91 -157h91z" />
    <glyph glyph-name="three.sup" horiz-adv-x="340" 
d="M166 412q-72 0 -108 32t-38 88h83q5 -54 58 -54q54 0 54 47q0 45 -54 45h-28v58h27q52 0 52 43q0 40 -45 40q-48 0 -54 -48h-83q4 52 40.5 83.5t98.5 31.5t96.5 -26.5t34.5 -70.5q0 -57 -61 -77q32 -6 51 -27.5t19 -54.5q0 -52 -37.5 -81t-105.5 -29z" />
    <glyph glyph-name="two.sup" horiz-adv-x="317" 
d="M7 430l128 135q59 61 59 99q0 43 -42 43q-45 0 -52 -61h-85q3 63 40.5 97t100.5 34q62 0 95.5 -30t33.5 -79q0 -61 -70 -126l-58 -57h131v-68h-281v13z" />
    <glyph glyph-name="one.sup" horiz-adv-x="258" 
d="M104 683l-82 -51v78l94 63h82v-355h-94v265z" />
    <glyph glyph-name="zero.sup" horiz-adv-x="382" 
d="M190 484q68 0 68 107v11q0 105 -69 105q-68 0 -68 -106v-11q0 -106 69 -106zM188 412q-75 0 -118 47.5t-43 129.5v11q0 83 44.5 130.5t117.5 47.5t117.5 -46.5t44.5 -128.5v-11q0 -84 -43 -132t-120 -48z" />
    <glyph glyph-name="minus.sub" horiz-adv-x="350" 
d="M39 113h269v-68h-269v68z" />
    <glyph glyph-name="plus.sub" horiz-adv-x="350" 
d="M138 45h-99v68h99v104h70v-104h100v-68h-100v-103h-70v103z" />
    <glyph glyph-name="nine.sub" horiz-adv-x="353" 
d="M165 -105q-60 0 -95 27t-41 77h86q9 -36 49 -36q63 0 65 102q-27 -41 -83 -41q-54 0 -87.5 29.5t-33.5 83.5q0 57 38.5 90.5t104.5 33.5q76 0 115 -45.5t39 -125.5v-14q0 -88 -40 -134.5t-117 -46.5zM168 82q24 0 39.5 15t15.5 39q0 28 -15 44.5t-40 16.5
q-24 0 -38.5 -16t-14.5 -42t14 -41.5t39 -15.5z" />
    <glyph glyph-name="eight.sub" horiz-adv-x="344" 
d="M170 -105q-67 0 -106.5 27t-39.5 78q0 65 65 89q-51 21 -51 73q0 46 38.5 72.5t94.5 26.5q57 0 94 -26t37 -72q0 -52 -52 -73q66 -22 66 -87q0 -51 -40 -79.5t-106 -28.5zM170 -40q24 0 39 13.5t15 37.5q0 23 -15 36t-39 13t-39 -13.5t-15 -36.5t15 -36.5t39 -13.5z
M171 113q21 0 33.5 11.5t12.5 31.5t-13 31t-33 11q-21 0 -34 -11.5t-13 -31.5q0 -19 13.5 -30.5t33.5 -11.5z" />
    <glyph glyph-name="seven.sub" horiz-adv-x="302" 
d="M171 182h-153v74h270v-10l-129 -345h-94z" />
    <glyph glyph-name="six.sub" horiz-adv-x="353" 
d="M181 -105q-154 0 -154 172v9q0 88 44 136.5t117 48.5q118 0 128 -102h-85q-7 34 -43 34q-63 0 -68 -104q28 43 86 43q52 0 85 -30t33 -83q0 -57 -38.5 -90.5t-104.5 -33.5zM180 -41q24 0 39 16t15 42t-14.5 41.5t-39.5 15.5t-40 -15.5t-15 -39.5q0 -28 15 -44t40 -16z
" />
    <glyph glyph-name="five.sub" horiz-adv-x="332" 
d="M159 -105q-67 0 -102 31t-37 82h86q3 -22 14.5 -33t36.5 -11q24 0 37 15t13 42q0 26 -13.5 40.5t-37.5 14.5q-39 0 -59 -27h-62l7 207h238v-68h-171l-2 -87q29 37 84 37q50 0 80 -31t30 -85q0 -60 -38 -93.5t-104 -33.5z" />
    <glyph glyph-name="four.sub" horiz-adv-x="352" 
d="M193 -30h-178v34l154 252h113v-222h46v-64h-46v-69h-89v69zM195 34v157l-91 -157h91z" />
    <glyph glyph-name="uni043F.bgr" horiz-adv-x="608" 
d="M72 523h121v-83q20 41 63.5 67.5t105.5 26.5q83 0 131 -51t48 -155v-328h-121v318q0 60 -25 87.5t-79 27.5q-53 0 -88 -32.5t-35 -92.5v-308h-121v523z" />
    <glyph glyph-name="two.sub" horiz-adv-x="317" 
d="M7 -86l128 135q59 61 59 99q0 43 -42 43q-45 0 -52 -61h-85q3 63 40.5 97t100.5 34q62 0 95.5 -30t33.5 -79q0 -61 -70 -126l-58 -57h131v-68h-281v13z" />
    <glyph glyph-name="one.sub" horiz-adv-x="258" 
d="M104 165l-82 -51v78l94 63h82v-355h-94v265z" />
    <glyph glyph-name="zero.sub" horiz-adv-x="382" 
d="M190 -33q68 0 68 107v11q0 105 -69 105q-68 0 -68 -106v-11q0 -106 69 -106zM188 -105q-75 0 -118 47.5t-43 129.5v11q0 83 44.5 130.5t117.5 47.5t117.5 -46.5t44.5 -128.5v-11q0 -84 -43 -132t-120 -48z" />
    <glyph glyph-name="nine.den" horiz-adv-x="353" 
d="M165 -6q-60 0 -95 27t-41 77h86q9 -36 49 -36q63 0 65 102q-27 -41 -83 -41q-54 0 -87.5 29.5t-33.5 83.5q0 57 38.5 90.5t104.5 33.5q76 0 115 -45.5t39 -125.5v-14q0 -88 -40 -134.5t-117 -46.5zM168 181q24 0 39.5 15.5t15.5 38.5q0 28 -15 44.5t-40 16.5
q-24 0 -38.5 -16t-14.5 -42t14 -41.5t39 -15.5z" />
    <glyph glyph-name="eight.den" horiz-adv-x="344" 
d="M170 -6q-67 0 -106.5 27t-39.5 78q0 65 65 89q-51 21 -51 73q0 46 38.5 72.5t94.5 26.5q57 0 94 -26t37 -72q0 -52 -52 -73q66 -23 66 -87q0 -51 -40 -79.5t-106 -28.5zM170 59q24 0 39 13.5t15 37.5q0 23 -15 36t-39 13t-39 -13.5t-15 -36.5t15 -36.5t39 -13.5zM171 212
q21 0 33.5 11.5t12.5 31.5t-13 31t-33 11q-21 0 -34 -11.5t-13 -31.5q0 -19 13.5 -30.5t33.5 -11.5z" />
    <glyph glyph-name="seven.den" horiz-adv-x="302" 
d="M171 281h-153v74h270v-10l-129 -345h-94z" />
    <glyph glyph-name="six.den" horiz-adv-x="353" 
d="M181 -6q-154 0 -154 172v9q0 88 44 136.5t117 48.5q118 0 128 -102h-85q-7 34 -43 34q-63 0 -68 -104q28 43 86 43q52 0 85 -30t33 -83q0 -57 -38.5 -90.5t-104.5 -33.5zM180 58q24 0 39 16t15 42t-14.5 41.5t-39.5 15.5t-40 -15.5t-15 -39.5q0 -28 15 -44t40 -16z" />
    <glyph glyph-name="five.den" horiz-adv-x="332" 
d="M159 -6q-67 0 -102 31t-37 82h86q3 -22 14.5 -33t36.5 -11q24 0 37 15t13 42q0 26 -13.5 40.5t-37.5 14.5q-39 0 -59 -27h-62l7 207h238v-68h-171l-2 -87q29 37 84 37q50 0 80 -31t30 -85q0 -60 -38 -93.5t-104 -33.5z" />
    <glyph glyph-name="four.den" horiz-adv-x="352" 
d="M193 69h-178v34l154 252h113v-222h46v-64h-46v-69h-89v69zM195 133v157l-91 -157h91z" />
    <glyph glyph-name="three.den" horiz-adv-x="340" 
d="M166 -6q-72 0 -108 32t-38 88h83q5 -54 58 -54q54 0 54 47q0 45 -54 45h-28v58h27q52 0 52 43q0 40 -45 40q-48 0 -54 -48h-83q4 52 40.5 83.5t98.5 31.5t96.5 -26.5t34.5 -70.5q0 -57 -61 -77q32 -6 51 -27.5t19 -54.5q0 -52 -37.5 -81t-105.5 -29z" />
    <glyph glyph-name="uni0442.locl" horiz-adv-x="485" 
d="M463 433h-160v-433h-121v433h-160v90h441v-90z" />
    <glyph glyph-name="uni20BD.old" horiz-adv-x="632" 
d="M254 142v-142h-131v142h-97v61h97v66h-97v61h97v377h227q122 0 191.5 -55t69.5 -163v-4q0 -106 -66.5 -160t-180.5 -56h-110v-66h218v-61h-218zM350 364q134 0 134 120v4q0 117 -133 117h-97v-241h96z" />
    <glyph glyph-name="one.den" horiz-adv-x="258" 
d="M104 265l-82 -51v78l94 63h82v-355h-94v265z" />
    <glyph glyph-name="zero.den" horiz-adv-x="382" 
d="M190 66q68 0 68 107v11q0 105 -69 105q-68 0 -68 -106v-11q0 -106 69 -106zM188 -6q-75 0 -118 47.5t-43 129.5v11q0 83 44.5 130.5t117.5 47.5t117.5 -46.5t44.5 -128.5v-11q0 -84 -43 -132t-120 -48z" />
    <glyph glyph-name="nine.num" horiz-adv-x="352" 
d="M165 354q-60 0 -95 27t-41 77h86q9 -36 49 -36q63 0 65 102q-27 -41 -83 -41q-54 0 -87.5 29.5t-33.5 83.5q0 57 38.5 90.5t104.5 33.5q76 0 115 -45.5t39 -125.5v-14q0 -88 -40 -134.5t-117 -46.5zM168 541q24 0 39.5 15.5t15.5 38.5q0 28 -15 44.5t-40 16.5
q-24 0 -38.5 -16t-14.5 -42t14 -41.5t39 -15.5z" />
    <glyph glyph-name="eight.num" horiz-adv-x="344" 
d="M170 354q-67 0 -106.5 27t-39.5 78q0 65 65 89q-51 21 -51 73q0 46 38.5 72.5t94.5 26.5q57 0 94 -26t37 -72q0 -52 -52 -73q66 -23 66 -87q0 -51 -40 -79.5t-106 -28.5zM170 419q24 0 39 13.5t15 37.5q0 23 -15 36t-39 13t-39 -13.5t-15 -36.5t15 -36.5t39 -13.5z
M171 572q21 0 33.5 11.5t12.5 31.5t-13 31t-33 11q-21 0 -34 -11.5t-13 -31.5q0 -19 13.5 -30.5t33.5 -11.5z" />
    <glyph glyph-name="seven.num" horiz-adv-x="302" 
d="M171 641h-153v74h270v-10l-129 -345h-94z" />
    <glyph glyph-name="six.num" horiz-adv-x="352" 
d="M181 354q-154 0 -154 172v9q0 88 44 136.5t117 48.5q118 0 128 -102h-85q-7 34 -43 34q-63 0 -68 -104q28 43 86 43q52 0 85 -30t33 -83q0 -57 -38.5 -90.5t-104.5 -33.5zM180 418q24 0 39 16t15 42t-14.5 41.5t-39.5 15.5t-40 -15.5t-15 -39.5q0 -28 15 -44t40 -16z" />
    <glyph glyph-name="five.num" horiz-adv-x="331" 
d="M159 354q-67 0 -102 31t-37 82h86q3 -22 14.5 -33t36.5 -11q24 0 37 15t13 42q0 26 -13.5 40.5t-37.5 14.5q-39 0 -59 -27h-62l7 207h238v-68h-171l-2 -87q29 37 84 37q50 0 80 -31t30 -85q0 -60 -38 -93.5t-104 -33.5z" />
    <glyph glyph-name="four.num" horiz-adv-x="351" 
d="M193 429h-178v34l154 252h113v-222h46v-64h-46v-69h-89v69zM195 493v157l-91 -157h91z" />
    <glyph glyph-name="three.num" horiz-adv-x="340" 
d="M166 354q-72 0 -108 32t-38 88h83q5 -54 58 -54q54 0 54 47q0 45 -54 45h-28v58h27q52 0 52 43q0 40 -45 40q-48 0 -54 -48h-83q4 52 40.5 83.5t98.5 31.5t96.5 -26.5t34.5 -70.5q0 -57 -61 -77q32 -6 51 -27.5t19 -54.5q0 -52 -37.5 -81t-105.5 -29z" />
    <glyph glyph-name="two.num" horiz-adv-x="317" 
d="M7 373l128 135q59 61 59 99q0 43 -42 43q-45 0 -52 -61h-85q3 63 40.5 97t100.5 34q62 0 95.5 -30t33.5 -79q0 -61 -70 -126l-58 -57h131v-68h-281v13z" />
    <glyph glyph-name="one.num" horiz-adv-x="257" 
d="M104 625l-82 -51v78l94 63h82v-355h-94v265z" />
    <glyph glyph-name="zero.num" horiz-adv-x="382" 
d="M190 426q68 0 68 107v11q0 105 -69 105q-68 0 -68 -106v-11q0 -106 69 -106zM188 354q-75 0 -118 47.5t-43 129.5v11q0 83 44.5 130.5t117.5 47.5t117.5 -46.5t44.5 -128.5v-11q0 -84 -43 -132t-120 -48z" />
    <glyph glyph-name="uni045D.bgr" horiz-adv-x="605" 
d="M247 -10q-82 0 -131 49t-49 149v335h121v-321q0 -60 25 -87.5t78 -27.5q52 0 87 33t35 92v311h121v-523h-121v82q-49 -92 -166 -92zM159 756h134l59 -155h-89z" />
    <glyph glyph-name="braceright.tab" horiz-adv-x="304" 
d="M28 -64q56 2 74.5 29.5t6.5 98.5l-18 109q-9 54 15.5 87.5t82.5 54.5q-58 22 -82.5 55t-15.5 88l18 108q12 71 -6.5 98t-74.5 29v84q118 0 165 -51.5t24 -166.5l-19 -98q-9 -44 8.5 -70t71.5 -35v-82q-54 -11 -71.5 -37.5t-8.5 -68.5l19 -98q21 -114 -26 -166t-163 -52
v84z" />
    <glyph glyph-name="braceleft.tab" horiz-adv-x="304" 
d="M272 -148q-117 0 -164.5 52t-24.5 166l19 98q9 43 -9 68.5t-71 37.5v82q98 17 80 105l-19 98q-23 115 24 166.5t165 51.5v-84q-56 -2 -74.5 -29t-6.5 -98l18 -108q9 -55 -15.5 -88t-82.5 -55q58 -21 82.5 -54.5t15.5 -87.5l-18 -109q-12 -71 6.5 -98.5t74.5 -29.5v-84z
" />
    <glyph glyph-name="bracketright.tab" horiz-adv-x="304" 
d="M28 -62h98v752h-98v86h212v-924h-212v86z" />
    <glyph glyph-name="bracketleft.tab" horiz-adv-x="304" 
d="M60 776h212v-86h-98v-752h98v-86h-212v924z" />
    <glyph glyph-name="parenright.tab" horiz-adv-x="304" 
d="M16 -148q124 207 124 461q0 250 -124 461h100q139 -203 139 -461t-139 -461h-100z" />
    <glyph glyph-name="parenleft.tab" horiz-adv-x="304" 
d="M184 -148q-139 203 -139 461t139 461h100q-124 -211 -124 -461q0 -254 124 -461h-100z" />
    <glyph glyph-name="semicolon.tab" horiz-adv-x="304" 
d="M11 -90l91 237l114 -46l-131 -224zM157 285q-34 0 -57 23t-23 56t23 55.5t57 22.5q33 0 56.5 -22.5t23.5 -55.5t-23.5 -56t-56.5 -23z" />
    <glyph glyph-name="uni20B8.tab" horiz-adv-x="600" 
d="M52 649v66h496v-66h-496zM233 480h-181v105h496v-105h-181v-480h-134v480z" />
    <glyph glyph-name="colon.tab" horiz-adv-x="304" 
d="M149 -7q-33 0 -56 22.5t-23 55.5t23 56t56 23q34 0 57 -23t23 -56t-23 -55.5t-57 -22.5zM149 285q-33 0 -56 23t-23 56t23 55.5t56 22.5q34 0 57 -22.5t23 -55.5t-23 -56t-57 -23z" />
    <glyph glyph-name="comma.tab" horiz-adv-x="304" 
d="M31 -90l91 237l115 -46l-131 -224z" />
    <glyph glyph-name="period.tab" horiz-adv-x="304" 
d="M150 -7q-33 0 -56 22.5t-23 55.5t23 56t56 23q34 0 57 -23t23 -56t-23 -55.5t-57 -22.5z" />
    <glyph glyph-name="greaterequal.tab" 
d="M106 240l223 115l-223 114v111l399 -213v-26l-399 -213v112zM106 89h399v-89h-399v89z" />
    <glyph glyph-name="eight.oldtab" horiz-adv-x="600" 
d="M301 -10q-105 0 -177.5 56t-72.5 154q0 67 35.5 112.5t95.5 66.5q-104 43 -104 152q0 89 66 141.5t158 52.5q93 0 157.5 -52.5t64.5 -139.5q0 -108 -106 -153q132 -46 132 -176q0 -100 -71.5 -157t-177.5 -57zM303 419q48 0 76 28.5t28 79.5q0 47 -29.5 76t-75.5 29
t-76.5 -29t-30.5 -77q0 -49 31 -78t77 -29zM301 87q56 0 91 32.5t35 90.5t-34.5 90t-90.5 32q-55 0 -91.5 -33t-36.5 -90q0 -56 36.5 -89t90.5 -33z" />
    <glyph glyph-name="lessequal.tab" 
d="M96 341v26l398 213v-111l-223 -114l223 -115v-112zM96 89h398v-89h-398v89z" />
    <glyph glyph-name="greater.tab" 
d="M101 194l240 128l-240 131v111l407 -229v-25l-407 -229v113z" />
    <glyph glyph-name="less.tab" 
d="M92 309v26l407 228v-112l-240 -128l240 -131v-111z" />
    <glyph glyph-name="approxequal.tab" 
d="M77 148q6 71 39.5 106.5t82.5 35.5q42 0 110.5 -21t90.5 -21q18 0 30.5 11.5t14.5 33.5h79q-4 -69 -37.5 -105.5t-81.5 -36.5q-44 0 -112.5 21.5t-90.5 21.5q-39 0 -46 -46h-79zM77 342q6 71 39.5 106.5t82.5 35.5q42 0 110.5 -21t90.5 -21q18 0 30.5 11.5t14.5 33.5h79
q-4 -69 -37.5 -105.5t-81.5 -36.5q-44 0 -112.5 21.5t-90.5 21.5q-39 0 -46 -46h-79z" />
    <glyph glyph-name="uni043A.bgr" horiz-adv-x="540" 
d="M193 256v-256h-121v765h121v-474l187 232h132l-203 -242l220 -281h-140z" />
    <glyph glyph-name="notequal.tab" 
d="M83 463h227l39 100h91l-39 -100h116v-92h-152l-36 -95h188v-91h-223l-39 -101h-91l39 101h-120v91h155l36 95h-191v92z" />
    <glyph glyph-name="five.oldtab" horiz-adv-x="600" 
d="M295 -105q-116 0 -176.5 56t-66.5 153h115q9 -55 37 -83t90 -28q60 0 93 39t33 106q0 63 -34 101t-91 38q-95 0 -144 -62h-63l5 404h413v-102h-316l-2 -205q51 58 147 58q94 0 152 -62.5t58 -166.5q0 -113 -69 -179.5t-181 -66.5z" />
    <glyph glyph-name="uni043D.bgr" horiz-adv-x="603" 
d="M410 222h-217v-222h-121v523h121v-211h217v211h121v-523h-121v222z" />
    <glyph glyph-name="equal.tab" 
d="M86 276h428v-91h-428v91zM86 463h428v-92h-428v92z" />
    <glyph glyph-name="divide.tab" 
d="M300 71q-32 0 -54 21.5t-22 53.5t22 53.5t54 21.5q31 0 53.5 -21.5t22.5 -53.5t-22.5 -53.5t-53.5 -21.5zM67 387h467v-91h-467v91zM300 461q-32 0 -54 21.5t-22 53.5t22 54t54 22q31 0 53.5 -22t22.5 -54t-22.5 -53.5t-53.5 -21.5z" />
    <glyph glyph-name="multiply.tab" 
d="M81 181l154 153l-155 154l66 67l154 -155l154 154l66 -66l-154 -154l155 -154l-67 -66l-154 155l-153 -154z" />
    <glyph glyph-name="plusminus.tab" 
d="M250 332h-183v94h183v176h101v-176h182v-94h-182v-175h-101v175zM67 89h467v-89h-467v89z" />
    <glyph glyph-name="minus.tab" 
d="M69 389h462v-96h-462v96z" />
    <glyph glyph-name="plus.tab" 
d="M250 294h-180v94h180v195h101v-195h180v-94h-180v-195h-101v195z" />
    <glyph glyph-name="uni0433.locl" horiz-adv-x="443" 
d="M193 433v-433h-121v523h349v-90h-228z" />
    <glyph glyph-name="perthousand.tab" horiz-adv-x="1004" 
d="M179 467q52 0 52 90q0 91 -52 91q-53 0 -53 -91q0 -90 53 -90zM178 392q-61 0 -101.5 45t-40.5 119q0 76 41.5 121t101.5 45q61 0 101.5 -44t40.5 -119q0 -76 -40.5 -121.5t-102.5 -45.5zM529 715h83l-455 -715h-83zM503 65q53 0 53 91q0 90 -53 90q-52 0 -52 -90
q0 -91 52 -91zM503 -10q-61 0 -101.5 45.5t-40.5 119.5q0 75 41.5 120t100.5 45q62 0 102.5 -43.5t40.5 -119.5t-40.5 -121.5t-102.5 -45.5zM822 65q52 0 52 91q0 90 -52 90q-53 0 -53 -90q0 -91 53 -91zM821 -10q-61 0 -101.5 45.5t-40.5 119.5q0 75 41.5 120t101.5 45
q61 0 101.5 -43.5t40.5 -119.5t-40.5 -121.5t-102.5 -45.5z" />
    <glyph glyph-name="uni0446.bgr" horiz-adv-x="625" 
d="M509 -127l-6 127h-90v82q-49 -92 -166 -92q-82 0 -131 49t-49 149v335h121v-321q0 -60 25 -87.5t77 -27.5q53 0 88 32.5t35 92.5v311h121v-433h75v-217h-100z" />
    <glyph glyph-name="percent.tab" horiz-adv-x="804" 
d="M208 461q35 0 55 24t20 68q0 42 -20 67t-55 25q-34 0 -54 -24t-20 -68t20 -68t54 -24zM208 383q-72 0 -121 48.5t-49 120.5q0 73 49.5 121.5t120.5 48.5t120.5 -48t49.5 -120q0 -74 -49 -122.5t-121 -48.5zM586 715h84l-455 -715h-84zM592 69q35 0 54.5 23.5t19.5 67.5
q0 43 -19.5 67.5t-54.5 24.5q-34 0 -54.5 -24t-20.5 -68t20 -67.5t55 -23.5zM592 -10q-72 0 -121 48.5t-49 120.5q0 73 49.5 121.5t120.5 48.5t120.5 -47.5t49.5 -119.5q0 -74 -49 -123t-121 -49z" />
    <glyph glyph-name="tilde.uc" horiz-adv-x="404" 
d="M258 768q-26 0 -63 19.5t-49 19.5q-14 0 -24 -11t-13 -29h-76q5 61 35.5 96t73.5 35q25 0 62 -20t51 -20q29 0 36 40h77q-6 -61 -36.5 -95.5t-73.5 -34.5z" />
    <glyph glyph-name="uni0447.bgr" horiz-adv-x="571" 
d="M378 0v232q-53 -59 -152 -59q-77 0 -124 49.5t-47 149.5v151h120v-138q0 -60 23 -87.5t72 -27.5q73 0 108 50v203h121v-523h-121z" />
    <glyph glyph-name="hungarumlaut.uc" horiz-adv-x="404" 
d="M112 901h118l-73 -135h-83zM282 901h118l-73 -135h-83z" />
    <glyph glyph-name="uni0438.bgr" horiz-adv-x="605" 
d="M247 -10q-82 0 -131 49t-49 149v335h121v-321q0 -60 25 -87.5t77 -27.5q53 0 88 32.5t35 92.5v311h121v-523h-121v82q-49 -92 -166 -92z" />
    <glyph glyph-name="f.short" horiz-adv-x="353" 
d="M93 432h-71v91h71v70q0 87 45 132t129 45q42 0 66 -9v-94q-21 8 -51 8q-68 0 -68 -77v-75h119v-91h-119v-432h-121v432z" />
    <glyph glyph-name="f_f.short" horiz-adv-x="658" 
d="M93 432h-71v91h71v63q0 87 45 132t130 45q36 0 69 -10v-94q-30 10 -54 10q-69 0 -69 -77v-69h184v70q0 87 45 132t129 45q42 0 66 -9v-94q-21 8 -51 8q-68 0 -68 -77v-75h119v-91h-119v-432h-121v432h-184v-432h-121v432z" />
    <glyph glyph-name="uni021B.alt" horiz-adv-x="358" 
d="M63 -198l52 165l111 -22l-92 -170zM100 432h-78v91h78v115h121v-115h107v-91h-107v-432h-121v432z" />
    <glyph glyph-name="tbar.alt" horiz-adv-x="354" 
d="M22 336h78v96h-78v91h78v115h121v-115h107v-91h-107v-96h107v-75h-107v-261h-121v261h-78v75z" />
    <glyph glyph-name="uni043B.bgr" horiz-adv-x="557" 
d="M539 0h-129l-137 399l-135 -399h-120l189 523h142z" />
    <glyph glyph-name="uni0437.bgr" horiz-adv-x="499" 
d="M466 24q0 -99 -61.5 -157.5t-163.5 -58.5q-100 0 -155.5 49.5t-66.5 127.5h121q18 -85 98 -85q51 0 79 31.5t28 93.5v5q0 64 -29.5 94.5t-91.5 30.5h-48v88h47q102 0 102 101v5q0 94 -86 94q-75 0 -86 -88h-115q17 179 206 179q93 0 146 -49.5t53 -130.5v-5
q0 -54 -31 -95.5t-79 -49.5q61 -14 97 -57t36 -118v-5z" />
    <glyph glyph-name="uni20B4.oldtab" horiz-adv-x="600" 
d="M296 -10q-109 0 -173 49.5t-64 139.5q0 46 17 83h-47v62h102q42 32 143 66h-245v61h365q21 25 21 75q0 79 -104 79q-54 0 -83.5 -23t-38.5 -74h-114q9 96 69.5 145t166.5 49q101 0 162.5 -45t61.5 -127q0 -46 -15 -79h50v-61h-98q-43 -36 -131 -66h229v-62h-358
q-32 -29 -32 -83q0 -46 31.5 -69t84.5 -23q127 0 141 121h119q-6 -100 -71 -159t-189 -59z" />
    <glyph glyph-name="nine.oldtab" horiz-adv-x="600" 
d="M292 253q57 0 93.5 37t36.5 97q0 70 -36 108.5t-95 38.5q-56 0 -92 -38.5t-36 -100.5q0 -65 35.5 -103.5t93.5 -38.5zM280 -106q-102 0 -160.5 50.5t-69.5 144.5h114q21 -97 120 -97q73 0 106 62.5t35 196.5q-53 -87 -161 -87q-97 0 -158.5 61t-61.5 164q0 107 68 173.5
t179 66.5q131 0 193.5 -82.5t62.5 -227.5v-65q0 -176 -66.5 -268t-200.5 -92z" />
    <glyph glyph-name="uni0434.bgr" horiz-adv-x="633" 
d="M299 114q64 0 104.5 43t40.5 117v7q0 75 -37.5 116.5t-103.5 41.5q-67 0 -104.5 -43.5t-37.5 -116.5v-8q0 -71 39 -114t99 -43zM295 -192q-117 0 -179.5 47t-72.5 127h122q17 -82 129 -82q146 0 146 141v77q-23 -40 -69.5 -68.5t-101.5 -28.5q-100 0 -166 68.5t-66 180.5
v7q0 111 66.5 184t168.5 73q114 0 168 -91v80h121v-484q-1 -114 -71 -172.5t-195 -58.5z" />
    <glyph glyph-name="uni20BD.tab" horiz-adv-x="600" 
d="M241 146v-146h-125v146h-94v64h94v67h-94v63h94v375h205q117 0 184 -56t67 -165v-4q0 -109 -67.5 -164t-180.5 -55h-83v-61h205v-64h-205zM322 368q128 0 128 122v4q0 118 -128 118h-81v-244h81z" />
    <glyph glyph-name="florin.tab" 
d="M101 414h112l21 141q25 169 189 169q41 0 73 -11v-95q-21 10 -61 10q-69 0 -82 -82l-20 -132h135v-90h-148l-75 -506h-120l75 506h-99v90z" />
    <glyph glyph-name="yen.tab" 
d="M80 350h150l-192 365h138l135 -280l129 280h122l-182 -365h152v-64h-162v-67h162v-64h-162v-155h-130v155h-160v64h160v67h-160v64z" />
    <glyph glyph-name="sterling.tab" 
d="M43 386h57q-16 66 -16 123q0 98 66 156.5t167 58.5q106 0 163.5 -54t63.5 -154h-116q-9 55 -33.5 80t-74.5 25q-49 0 -79 -31.5t-30 -85.5q0 -58 13 -118h192v-80h-176q10 -66 10 -105q0 -34 -12 -61q19 -5 49 -16.5t51.5 -18t36.5 -6.5q37 0 57 17t22 57h109
q-4 -83 -47.5 -132.5t-119.5 -49.5q-50 0 -118.5 29.5t-90.5 29.5q-50 0 -56 -50h-100q2 48 27.5 88t71.5 55q9 25 9 59q0 38 -17 104h-79v80z" />
    <glyph glyph-name="uni0449.bgr" horiz-adv-x="938" 
d="M822 -127l-6 127h-90v82q-22 -41 -63 -67t-96 -26q-110 0 -149 94q-28 -47 -76.5 -70.5t-100.5 -23.5q-77 0 -125.5 50.5t-48.5 152.5v331h121v-323q0 -110 94 -110q48 0 81.5 31.5t33.5 88.5v313h120v-323q0 -110 94 -110q48 0 81.5 32.5t33.5 89.5v311h120v-433h76
v-217h-100z" />
    <glyph glyph-name="uni044A.bgr" horiz-adv-x="595" 
d="M25 433v90h247v-178q30 6 81 6q213 -2 213 -172v-4q0 -87 -59.5 -135.5t-151.5 -48.5q-104 1 -153.5 51t-49.5 152v239h-127zM355 75q43 0 65.5 25.5t22.5 68.5v4q0 92 -100 92q-46 0 -71 -5v-81q0 -104 83 -104z" />
    <glyph glyph-name="uni0431.locl" horiz-adv-x="611" 
d="M305 -10q-116 0 -192 72t-76 184v8q0 94 61 160t156 74q2 1 6.5 1.5t6.5 0.5q6 0 9 1q-39 17 -61 27.5t-50 27t-42 31.5t-24.5 35.5t-10.5 43.5q0 53 36.5 81t103.5 28h145q105 0 155 10v-94q-44 -15 -156 -15h-131q-48 0 -48 -30q0 -18 31.5 -38t106.5 -57
q126 -56 184.5 -117t58.5 -167v-8q0 -114 -76.5 -186.5t-192.5 -72.5zM306 84q66 0 105 45t39 118v8q0 75 -38 119.5t-106 44.5t-106.5 -44t-38.5 -119v-8q0 -74 38.5 -119t106.5 -45z" />
    <glyph glyph-name="space.tab" horiz-adv-x="304" 
 />
    <glyph glyph-name="nine.old" horiz-adv-x="631" 
d="M292 -105q-105 0 -167 51t-74 143h121q9 -43 40 -69t85 -26q80 0 115 61.5t38 199.5q-56 -91 -174 -91q-102 0 -166.5 62.5t-64.5 163.5q0 109 70.5 174t189.5 65q272 0 272 -330v-30q0 -183 -72.5 -278.5t-212.5 -95.5zM305 253q60 0 99 38t39 96q0 69 -38 108t-100 39
q-60 0 -96.5 -38t-36.5 -101q0 -64 36 -103t97 -39z" />
    <glyph glyph-name="eight.old" horiz-adv-x="616" 
d="M306 -10q-110 0 -186.5 56t-76.5 154q0 65 38.5 112t100.5 67q-111 45 -111 152q0 89 69.5 141.5t166.5 52.5q98 0 166.5 -52.5t68.5 -139.5q0 -106 -112 -153q65 -23 102 -67.5t37 -108.5q0 -100 -75.5 -157t-187.5 -57zM307 87q59 0 96.5 33t37.5 91q0 56 -37 88.5
t-96 32.5q-58 0 -97 -32.5t-39 -89.5q0 -56 39.5 -89.5t95.5 -33.5zM309 419q50 0 80.5 29t30.5 79q0 47 -32 75.5t-81 28.5t-81.5 -28.5t-32.5 -77.5q0 -48 33.5 -77t82.5 -29z" />
    <glyph glyph-name="uni20B8.old" horiz-adv-x="560" 
d="M26 632v62h508v-62h-508zM215 466h-189v101h508v-101h-189v-466h-130v466z" />
    <glyph glyph-name="seven.old" horiz-adv-x="546" 
d="M360 515h-334v103h496v-15l-277 -698h-133z" />
    <glyph glyph-name="six.old" horiz-adv-x="631" 
d="M322 -10q-144 0 -208.5 88.5t-64.5 238.5v32q0 179 79.5 277.5t209.5 98.5q97 0 156 -47t72 -139h-120q-10 44 -36 65.5t-75 21.5q-73 0 -114 -65.5t-44 -195.5q54 90 174 90q102 0 166.5 -63t64.5 -164q0 -108 -70.5 -173t-189.5 -65zM322 85q60 0 96.5 38.5t36.5 101.5
q0 64 -36 102.5t-98 38.5q-60 0 -99 -38t-39 -96q0 -68 38.5 -107.5t100.5 -39.5z" />
    <glyph glyph-name="five.old" horiz-adv-x="590" 
d="M285 -105q-117 0 -180.5 57t-69.5 152h118q9 -54 38 -82.5t93 -28.5q60 0 94.5 39.5t34.5 105.5q0 63 -35 101t-93 38q-94 0 -148 -62h-64l5 404h424v-103h-326l-2 -204q52 57 153 57q95 0 154.5 -62.5t59.5 -168.5q0 -110 -71.5 -176.5t-184.5 -66.5z" />
    <glyph glyph-name="uni20B4.tab" horiz-adv-x="600" 
d="M296 -10q-104 0 -166 51t-62 143q0 48 17 87h-46v63h96q48 37 136 68h-232v63h348q19 25 19 78q0 81 -94 81q-51 0 -77 -23.5t-35 -77.5h-115q20 201 227 201q98 0 156 -46.5t58 -131.5q0 -44 -14 -81h49v-63h-94q-46 -40 -128 -68h222v-63h-342q-28 -31 -28 -86
q0 -95 105 -95q65 0 94.5 33.5t36.5 91.5h120q-6 -103 -69 -164t-182 -61z" />
    <glyph glyph-name="four.old" horiz-adv-x="642" 
d="M385 51h-361v42l322 525h164v-477h97v-90h-97v-146h-125v146zM386 141v380l-224 -380h224z" />
    <glyph glyph-name="three.old" horiz-adv-x="608" 
d="M298 -105q-123 0 -191.5 63t-72.5 167h117q12 -133 144 -133q136 0 136 122q0 116 -133 116h-53v91h49q119 0 119 108q0 49 -27.5 76t-80.5 27q-57 0 -91.5 -31.5t-41.5 -88.5h-113q4 94 71 155.5t178 61.5q106 0 166.5 -54t60.5 -136q0 -113 -113 -157q137 -38 137 -173
q0 -97 -70.5 -155.5t-190.5 -58.5z" />
    <glyph glyph-name="two.old" horiz-adv-x="563" 
d="M18 23l242 227q64 61 91.5 99t27.5 84t-27.5 72t-77.5 26q-107 0 -124 -134h-114q6 106 71 169t172 63q104 0 166 -52.5t62 -137.5q0 -60 -37.5 -111.5t-116.5 -122.5l-116 -108h276v-97h-495v23z" />
    <glyph glyph-name="three.oldtab" horiz-adv-x="600" 
d="M294 -105q-121 0 -187.5 63t-70.5 167h116q14 -133 141 -133q67 0 100 32t33 89q0 117 -129 117h-52v91h49q116 0 116 109q0 47 -27 74.5t-80 27.5q-57 0 -90.5 -31.5t-39.5 -88.5h-113q4 93 70.5 155t174.5 62q105 0 164.5 -53.5t59.5 -136.5q0 -117 -110 -157
q134 -33 134 -171q0 -99 -70.5 -157.5t-188.5 -58.5z" />
    <glyph glyph-name="one.old" horiz-adv-x="410" 
d="M182 493l-148 -100v112l162 114h112v-619h-126v493z" />
    <glyph glyph-name="zero.old" horiz-adv-x="659" 
d="M329 90q152 0 152 206v30q0 99 -39 151.5t-114 52.5t-114.5 -51.5t-39.5 -151.5v-32q0 -101 40 -153t115 -52zM328 -10q-127 0 -205 82t-78 221v32q0 140 78 222t205 82t204.5 -81t77.5 -220v-31q0 -141 -76.5 -224t-205.5 -83z" />
    <glyph glyph-name="uni0430.alt" horiz-adv-x="622" 
d="M264 -10q-97 0 -161.5 70t-64.5 193v8q0 123 67 198t164 75q107 0 161 -90v79h121v-523h-121v86q-23 -40 -68.5 -68t-97.5 -28zM293 86q62 0 101.5 44.5t39.5 128.5v8q0 85 -36 128.5t-99 43.5q-64 0 -100.5 -45.5t-36.5 -129.5v-8q0 -83 36.5 -126.5t94.5 -43.5z" />
    <glyph glyph-name="yen.old" horiz-adv-x="590" 
d="M73 339h144l-196 355h139l143 -280l138 280h124l-187 -355h146v-61h-161v-66h161v-61h-161v-151h-129v151h-161v61h161v66h-161v61z" />
    <glyph glyph-name="uni20B8.oldtab" horiz-adv-x="600" 
d="M50 632v62h500v-62h-500zM235 466h-185v101h500v-101h-185v-466h-130v466z" />
    <glyph glyph-name="sterling.old" horiz-adv-x="611" 
d="M41 377h58q-15 58 -15 117q0 94 66.5 151t168.5 57q107 0 165.5 -54t63.5 -149h-120q-9 53 -33.5 77.5t-73.5 24.5q-48 0 -78 -30.5t-30 -81.5q0 -52 12 -112h194v-82h-177q10 -44 10 -99q0 -29 -12 -62q19 -5 48.5 -16t50.5 -17t37 -6q37 0 56.5 16.5t21.5 56.5h113
q-4 -79 -48.5 -128t-121.5 -49q-50 0 -119.5 28.5t-90.5 28.5q-51 0 -57 -48h-101q4 47 29.5 86.5t71.5 52.5q10 23 10 57q0 48 -17 99h-82v82z" />
    <glyph glyph-name="Euro.old" horiz-adv-x="675" 
d="M27 438h68q15 119 87 191.5t189 72.5q111 1 177 -57.5t77 -168.5h-120q-18 127 -135 127q-64 0 -102 -43.5t-47 -121.5h200l-12 -61h-191v-65h179l-11 -62h-165q19 -158 151 -158q122 0 141 141h119q-13 -116 -80.5 -179.5t-181.5 -63.5q-116 0 -188 71t-87 189h-68v62
h65v65h-65v61z" />
    <glyph glyph-name="dollar.old" horiz-adv-x="625" 
d="M277 -9q-221 15 -241 223h120q7 -55 32.5 -87.5t88.5 -40.5v220q-112 19 -165 64.5t-53 134.5q0 81 60 136t158 61v87h66v-88q196 -20 214 -197h-114q-17 89 -100 104v-201q115 -19 171 -64t56 -138q0 -87 -61 -146.5t-166 -67.5v-122h-66v122zM450 193q0 44 -22.5 66
t-84.5 35v-208q48 7 77.5 36t29.5 71zM174 515q0 -40 21 -61.5t82 -35.5v192q-50 -6 -76.5 -32t-26.5 -63z" />
    <glyph glyph-name="uni0434.locl" horiz-adv-x="592" 
d="M212 222q-11 -92 -31 -132h203v344h-159q-8 -163 -13 -212zM116 -127h-103v217h33q26 9 38 42.5t20 97.5q16 129 16 293h384v-433h76v-217h-103l-4 127h-353z" />
    <glyph glyph-name="space_uni0326" horiz-adv-x="404" 
d="M115 -198l52 165l111 -22l-92 -170z" />
    <glyph glyph-name="seven.oldtab" horiz-adv-x="600" 
d="M382 515h-326v103h492v-15l-284 -698h-133z" />
    <glyph glyph-name="dollar.oldtab" horiz-adv-x="600" 
d="M167 515q0 -41 21 -62.5t81 -34.5v190q-48 -5 -75 -30.5t-27 -62.5zM441 193q0 43 -22.5 65t-84.5 36v-208q49 7 78 35.5t29 71.5zM269 -8q-116 8 -173.5 68t-63.5 154h117q7 -55 33 -87.5t87 -40.5v220q-110 19 -162 64.5t-52 134.5q0 81 59 135.5t155 60.5v88h65v-89
q194 -17 212 -196h-112q-9 46 -32.5 70.5t-67.5 32.5v-200q115 -19 170 -63.5t55 -138.5q0 -86 -61 -146t-164 -68v-122h-65v123z" />
    <glyph glyph-name="uni20BD.oldtab" horiz-adv-x="600" 
d="M240 135v-135h-124v135h-94v61h94v66h-94v61h94v371h206q118 0 185 -53.5t67 -161.5v-4q0 -107 -67.5 -160.5t-181.5 -53.5h-85v-65h199v-61h-199zM323 357q130 0 130 118v4q0 61 -33 87t-97 26h-83v-235h83z" />
    <glyph glyph-name="idotaccent" horiz-adv-x="275" 
d="M134 609q-30 0 -51 20t-21 49q0 30 21 50t51 20t51 -20t21 -50q0 -29 -21 -49t-51 -20zM75 523h121v-523h-121v523z" />
    <glyph glyph-name="uni0433.bgr" horiz-adv-x="493" 
d="M238 -10q-98 0 -152 41.5t-54 111.5q0 73 46 106.5t131 52.5q63 13 91.5 30.5t28.5 51.5q0 59 -76 59q-41 0 -63 -16.5t-30 -53.5h-112q22 161 210 161q84 0 137.5 -38t53.5 -106q0 -39 -13 -67t-40.5 -45.5t-55.5 -28t-72 -20.5q-60 -13 -86 -30.5t-26 -54.5
q0 -62 87 -62q51 0 74.5 21t29.5 63h114q-5 -86 -62 -131t-161 -45z" />
    <glyph glyph-name="sterling.oldtab" horiz-adv-x="600" 
d="M45 378h55q-15 58 -15 115q0 95 66 152t166 57q103 0 160 -53t63 -149h-119q-9 54 -31 77.5t-71 23.5t-76.5 -29.5t-27.5 -82.5q0 -56 11 -111h185v-83h-169q9 -56 9 -99q0 -31 -11 -61q19 -5 46.5 -16t48 -17.5t35.5 -6.5q73 0 77 73h111q-4 -80 -48 -128.5t-119 -48.5
q-48 0 -114 28.5t-86 28.5q-49 0 -55 -48h-103q4 44 29 82.5t68 54.5q10 23 10 59q0 33 -17 99h-78v83z" />
    <glyph glyph-name="zero.oldtab" horiz-adv-x="600" 
d="M300 -10q-117 0 -185.5 74.5t-68.5 198.5v94q0 123 70 197.5t184 74.5q115 0 184.5 -73t69.5 -196v-95q0 -124 -68.5 -199.5t-185.5 -75.5zM302 93q127 0 127 171v94q0 81 -32 126t-96 45q-130 0 -130 -171v-95q0 -82 33 -126t98 -44z" />
    <glyph glyph-name="uni044E.bgr" horiz-adv-x="808" 
d="M511 -10q-105 0 -174 63.5t-79 168.5h-65v-222h-121v765h121v-453h67q14 102 82 162t170 60q115 0 187 -73.5t72 -193.5v-8q0 -121 -73 -195t-187 -74zM512 84q65 0 100 46.5t35 127.5v7q0 82 -35 128.5t-100 46.5q-64 0 -99 -46t-35 -127v-8q0 -82 34.5 -128.5
t99.5 -46.5z" />
    <glyph glyph-name="uni0448.bgr" horiz-adv-x="918" 
d="M846 0h-120v82q-22 -41 -63 -67t-96 -26q-110 0 -149 94q-28 -47 -76.5 -70.5t-100.5 -23.5q-77 0 -125.5 50.5t-48.5 152.5v331h121v-323q0 -110 94 -110q48 0 81.5 31.5t33.5 88.5v313h120v-323q0 -110 94 -110q48 0 81.5 32.5t33.5 89.5v311h120v-523z" />
    </font>
</defs>
</svg>
